Начать новую тему Ответить на тему  [ 1 сообщение ] 
Статистика раздачи
Размер|   743.1 МБ    |   779 192 457 байт   
Раздают: 115  [0 байт/сек]   Качают: 1 [0 байт/сек]    
Последний личер: | 4 месяца 5 дней 6 часов 6 минут 46 секунд назад  | (Google it!)
Автор Сообщение
Непрочитанное сообщение Добавлено: 21 дек 2019, 23:08 
Ответить с цитатой
Не в сети
Администратор
Администратор
Аватара пользователя


Открыть статистику

Раздал: 4.87 ТБ
Скачал: 6.65 ГБ
Ратио: 1749.514


Зарегистрирован: 01 июл 2016, 17:16
Сообщения: 2405
Баллы репутации: 10
За самый скачиваемый релиз
Медали: 8
за участие (1) Создание сайта (1) За 100 релизов (1) за 200 релизов (1)
За 500 релизов (1) За 1000 релизов (1) Кандидат на повышение (1) Подписчику в группе ВК (1)
Где-то во времени / The Fare (2018) WEB-DLRip-AVC | iTunes 

Информация о фильме
Название: Где-то во времени
Оригинальное название: The Fare
Год выпуска: 2018
Жанр: Триллер, детектив
Режиссер: Дэвид Хэмилтон
В ролях: Джино Энтони Песи, Бринна Келли, Джейсон Стюарт, Джон Джейкобс, Мэтт Фонтана, Дж.К. Бэйкер, Джефф Блум, Стивен Джи, Дэвид Миделл, Сара Мур

О фильме: Очаровательная пассажирка по имени Пенни садится в такси к Харрису. Машина движется по безлюдной темной трассе, и таксист начинает беседу с девушкой. Внезапно она исчезает с заднего сиденья автомобиля, не оставив и следа. Харрис сбрасывает счетчик километров... и перемещается во времени назад, в тот самый момент, когда таинственная пассажирка открывает дверь машины. Харрис и Пенни оказываются во временной ловушке, но эта бесконечная поездка снимет покров с тайн и изменит их жизни навсегда.



Страна: США
Студия: 501 Pictures, Grady Film, Public Displays of Affection
Продолжительность: 01:22:00
Перевод: Дублированный | iTunes

Файл
Формат: Matroska
Качество: WEB-DLRip-AVC
Видео: 768x320 at 24.00 fps, x264, ~1170 kbps, 0.198 bpp
Аудио: AAC, 2 ch, ~96 kbps - | Русский
x264 [info]: frame I:1035 Avg QP:10.20 size: 38924
x264 [info]: frame P:24516 Avg QP:13.12 size: 14558
x264 [info]: frame B:92535 Avg QP:14.03 size: 3482
x264 [info]: consecutive B-frames: 1.5% 1.5% 2.6% 39.7% 9.5% 28.0% 5.0% 6.9% 1.0% 1.3% 0.6% 1.4% 1.1%

General
Format : Matroska
Format version : Version 4
File size : 743 MiB
Duration : 1 h 22 min
Overall bit rate : 1 267 kb/s
Movie name : Где-то во времени.(2018).WEB-DLRip-AVC.[-=DoMiNo=-]
Encoded date : UTC 2019-12-21 16:19:54
Writing application : mkvmerge v41.0.0 ('Smarra') 64-bit
Writing library : libebml v1.3.9 + libmatroska v1.5.2
Attachments : poster.png / poster 2.jpg

Video
ID : 1
Format : AVC
Format/Info : Advanced Video Codec
Format profile : High@L4.1
Format settings : CABAC / 10 Ref Frames
Format settings, CABAC : Yes
Format settings, Reference : 10 frames
Codec ID : V_MPEG4/ISO/AVC
Duration : 1 h 22 min
Bit rate : 1 170 kb/s
Width : 768 pixels
Height : 320 pixels
Display aspect ratio : 2.40:1
Frame rate mode : Constant
Frame rate : 24.000 FPS
Color space : YUV
Chroma subsampling : 4:2:0
Bit depth : 8 bits
Scan type : Progressive
Bits/(Pixel*Frame) : 0.198
Stream size : 686 MiB (92%)
Title : RIP_BY_-=DoMiNo=-
Writing library : x264 core 159 r2991 1771b55
Encoding settings : cabac=1 / ref=10 / deblock=1:-2:-1 / analyse=0x3:0x133 / me=umh / subme=10 / psy=1 / psy_rd=1.00:0.15 / mixed_ref=1 / me_range=48 / chroma_me=1 / trellis=2 / 8x8dct=1 / cqm=0 / deadzone=21,11 / fast_pskip=0 / chroma_qp_offset=-3 / threads=6 / lookahead_threads=2 / sliced_threads=0 / nr=0 / decimate=0 / interlaced=0 / bluray_compat=0 / constrained_intra=0 / bframes=12 / b_pyramid=2 / b_adapt=2 / b_bias=0 / direct=3 / weightb=1 / open_gop=0 / weightp=2 / keyint=250 / keyint_min=23 / scenecut=40 / intra_refresh=0 / rc_lookahead=40 / rc=2pass / mbtree=0 / bitrate=1170 / ratetol=1.0 / qcomp=0.60 / qpmin=0 / qpmax=69 / qpstep=4 / cplxblur=20.0 / qblur=0.5 / vbv_maxrate=50000 / vbv_bufsize=62500 / nal_hrd=none / filler=0 / ip_ratio=1.40 / pb_ratio=1.30 / aq=3:0.90
Language : English
Default : Yes
Forced : No

Audio
ID : 2
Format : AAC LC SBR
Format/Info : Advanced Audio Codec Low Complexity with Spectral Band Replication
Commercial name : HE-AAC
Format settings : Explicit
Codec ID : A_AAC-2
Duration : 1 h 22 min
Bit rate : 96.0 kb/s
Channel(s) : 2 channels
Channel layout : L R
Sampling rate : 48.0 kHz
Frame rate : 23.438 FPS (2048 SPF)
Compression mode : Lossy
Stream size : 55.5 MiB (7%)
Title : DUB
Language : Russian
Default : Yes
Forced : No

Menu
00:00:00.000 : :Глава 01
00:07:30.000 : :Глава 02
00:15:00.000 : :Глава 03
00:22:30.000 : :Глава 04
00:30:00.000 : :Глава 05
00:37:30.000 : :Глава 06
00:45:00.000 : :Глава 07
00:52:30.000 : :Глава 08
01:00:00.000 : :Глава 09
01:07:30.000 : :Глава 10
01:15:00.000 : :Глава 11



_________________



 Профиль
 
 
Понравилась тема расскажи друзьям!


Где-то во времени / The Fare (2018) WEB-DLRip-AVC | iTunes.torrent 
Зарегистрирован:  21 дек 2019, 23:08  HASH|48130b6f7adf8dd15f9ff5e12d7c568dd4546748| (Google it!)
Статус:  √ Проверен  хакер (21 дек 2019, 23:08)
Торрент:  Размер: 743.1 МБ | Скачан: 4145 раз | Торрент файл: 30.02 КБ  
Приватный:    Нет (DHT включён)
Здоровье:   100%
Поделиться:
 
Как качать?
Как качать?
X
Скачайте торрент и откройте его в своем клиенте
uTorrent

скачать программу,
дождитесь окончания загрузки.
* Как смотреть?
Как смотреть?
X

Для работы Magic Player
Вам необходимо установить
Ace Stream P2P Multimedia Plug-in

Установить

Для работы Magic Player
Вам необходимо включить
Ace Stream P2P Multimedia Plug-in

Инструкция
Показать сообщения за:  Поле сортировки  
Начать новую тему Ответить на тему  [ 1 сообщение ] 

   Похожие торренты   Автор   Ответы   Просмотры   Последнее сообщение 
Непрочитанные сообщения Скачать торрент Магнет ссылка √ Проверен Перейти к первому непрочитанному сообщениюНю (2018) WEB-DLRip-AVC | iTunes За каждые 743.1 байт. аплоада (сидирования) этого торрента начисляется бонус: 2.000

в форуме Российское кино, Размер: 1.46 ГБ, Здоровье: 100%

K15

0
10|0

188
1615

02 апр 2020, 00:04

K15 Перейти к последнему сообщению

Непрочитанные сообщения Скачать торрент Магнет ссылка √ Проверен Перейти к первому непрочитанному сообщениюНю [2018, мелодрама, WEB-DLRip | iTunes] За каждые 743.1 байт. аплоада (сидирования) этого торрента начисляется бонус: 2.000

в форуме Российское кино, Размер: 1.08 ГБ, Здоровье: 100%

хакер

0
104|6

222
6386

13 мар 2020, 18:21

хакер Перейти к последнему сообщению

Непрочитанные сообщения Скачать торрент Магнет ссылка √ Проверен Перейти к первому непрочитанному сообщениюСоната / The Sonata [2018, Триллер, WEB-DLRip | iTunes] За каждые 743.1 байт. аплоада (сидирования) этого торрента начисляется бонус: 2.000

в форуме Фильмы WEB-DLRip / WEB-DLRip 720 / WEB-DLRip 1080, Размер: 1.38 ГБ, Здоровье: 100%

хакер

0
18|0

512
886

16 янв 2020, 21:24

хакер Перейти к последнему сообщению

Непрочитанные сообщения Скачать торрент Магнет ссылка √ Проверен Перейти к первому непрочитанному сообщениюНе бери в голову / Nevermind (2018) WEB-DLRip | iTunes За каждые 743.1 байт. аплоада (сидирования) этого торрента начисляется бонус: 2.000

в форуме Фильмы 2015-2020 г., Размер: 1.46 ГБ, Здоровье: 100%

Sherif

0
991|47

87
17198

19 май 2020, 13:41

Sherif Перейти к последнему сообщению

Непрочитанные сообщения Скачать торрент Магнет ссылка √ Проверен Перейти к первому непрочитанному сообщениюПроигранное место [2018, Ужасы, WEB-DLRip | iTunes] За каждые 743.1 байт. аплоада (сидирования) этого торрента начисляется бонус: 2.000

в форуме Фильмы WEB-DLRip / WEB-DLRip 720 / WEB-DLRip 1080, Размер: 1.46 ГБ, Здоровье: 100%

хакер

0
293|9

727
5267

03 мар 2020, 21:40

хакер Перейти к последнему сообщению



Кто сейчас на конференции

Сейчас этот форум просматривают: нет зарегистрированных пользователей и гости: 0


Вы не можете начинать темы
Вы не можете отвечать на сообщения
Вы не можете редактировать свои сообщения
Вы не можете удалять свои сообщения
Вы не можете добавлять вложения

Найти:
Перейти:  
cron
!ВНИМАНИЕ!

Сайт не распространяет и не хранит электронные версии произведений, а лишь предоставляет доступ к создаваемому пользователями каталогу ссылок на торрент-файлы, которые содержат только списки хеш-сумм, убедительная просьба с жалобами обращаться напрямую к пользователю.
The site does not extend and does not store electronic(digital) versions of products, and only gives access to a reference catalogue created by users on torrent-files which contain only lists of the hash-sums, the earnest entreaty, with complaints(abuse) to access directly to the user.
Информационное сообщение...
Доброго времени суток! Если вы попали на наш портал, советуем задержаться у нас и посмотрель материалы.А лучше всего оставайтесь и делитесь своими файлами со всем народом.Кроме этого вы сможете просмотреть нужный фильм в оригинальном качестве или прослушать музыку.Регистрируйтесь и воспользуйтесь всеми опциями трекера.
ppkBB3cker v.2 © 2008-2014 @ PPK