Сообщения без ответов | Активные темы Непрочитанные сообщения




Начать новую тему Ответить на тему  [ 1 сообщение ] 
Статистика раздачи
Размер|   1.6 ГБ    |   1 721 033 150 байт   
Раздают|   79   Качают|   19      
Последний личер: | 1 день 12 часов 25 минут 6 секунд назад  | (Google it!)
Автор Сообщение
Непрочитанное сообщениеДобавлено: 10 сен 2019, 19:43 
Не в сети
Администратор
Администратор
Аватара пользователя
Раздал: 4.26 ГБ
Скачал: 6.28 ГБ
Ратио: 0.678


Зарегистрирован: 01 июл 2016, 17:16
Сообщения: 1301
Баллы репутации: 110
За участие в улучшении сайтаЗа участие в улучшении сайта
Медали: 6
за участие (1) Создание сайта (1) За 100 релизов (1) за 200 релизов (1) За 500 релизов (1)
За 1000 релизов (1)
Хладнокровный / Cold Blood Legacy



Год выхода: 2019
Страна: Франция, Украина
Жанр: Боевик, триллер
Продолжительность: 01:31:21
Перевод: Профессиональный (многоголосый, закадровый) | HDRezka Studio
Субтитры: Английские (полные)

Режиссер: Фридерик Петижан
В ролях: Жан Рено, Сара Линд, Джо Андерсон, Дэвид Гяси, Игорь Цишкевич, Франсуа Гетари, Саманта Бонд, Катерина Бурсикова, Анна Буткевич, Роберт Фельдман, Лариса Руснак

О фильме:
Генри, один из наиболее разыскиваемых киллеров в отставке, живёт отшельником на берегу озера в труднодоступной лесной чаще. Однажды недалеко от его дома происходит несчастный случай: на мотосанях разбивается девушка. Перед Генри встаёт дилемма: спасти девушку, подвергнув себя риску быть обнаруженным или поступить так, как подсказывает здравый смысл и многолетний опыт.

Качество: BDRip-AVC
Формат: MKV
Видео кодек: H.264
Аудио кодек: АС3
Видео: H.264 / 1024x428 / 1874 Кбит/сек / 23,976 fps
Аудио#1: АС3 / 192 Кбит/сек / 2 ch / 48,0 КГц - Russian | HDRezka Studio
Аудио#2: АС3 / 448 Кбит/сек / 6 ch / 48,0 КГц - English

Примечание: Без рекламы!


Уникальный идентификатор : 71279336641362431069871718753574240213 (0x359FE6A06C5FA563E1E03F74FA2ABFD5)
Полное имя : Cold.Blood.Legacy.2019.BDRip(AVC).OllanDGroup.mkv
Формат : Matroska
Версия формата : Version 4 / Version 2
Размер файла : 1,60 Гбайт
Продолжительность : 1 ч. 31 м.
Общий поток : 2512 Кбит/сек
Название фильма : Cold.Blood.2019 #TorpedoUK#
Дата кодирования : UTC 2019-09-10 07:27:13
Программа кодирования : mkvmerge v29.0.0 ('Like It Or Not') 64-bit
Библиотека кодирования : libebml v1.3.6 + libmatroska v1.4.9
Видео
Идентификатор : 1
Формат : AVC
Формат/Информация : Advanced Video Codec
Профиль формата : [email�protected]
Параметр CABAC формата : Да
Параметр ReFrames формата : 10 кадров
Идентификатор кодека : V_MPEG4/ISO/AVC
Продолжительность : 1 ч. 31 м.
Битрейт : 1874 Кбит/сек
Ширина : 1024 пикселя
Высота : 428 пикселей
Соотношение сторон : 2,40:1
Режим частоты кадров : Постоянный
Частота кадров : 23,976 (24000/1001) кадра/сек
Цветовое пространство : YUV
Субдискретизация насыщенности : 4:2:0
Битовая глубина : 8 бит
Тип развёртки : Прогрессивная
Бит/(Пиксели*Кадры) : 0.178
Размер потока : 1,19 Гбайт (74%)
Библиотека кодирования : x264 core 146 r2538 121396c
Настройки программы : cabac=1 / ref=10 / deblock=1:-3:-3 / analyse=0x3:0x113 / me=umh / subme=11 / psy=1 / psy_rd=0.96:0.06 / mixed_ref=1 / me_range=48 / chroma_me=1 / trellis=2 / 8x8dct=1 / cqm=0 / deadzone=21,11 / fast_pskip=1 / chroma_qp_offset=-6 / threads=6 / lookahead_threads=1 / sliced_threads=0 / nr=0 / decimate=1 / interlaced=0 / bluray_compat=0 / constrained_intra=0 / bframes=11 / b_pyramid=2 / b_adapt=2 / b_bias=0 / direct=3 / weightb=1 / open_gop=0 / weightp=2 / keyint=240 / keyint_min=23 / scenecut=40 / intra_refresh=0 / rc_lookahead=40 / rc=2pass / mbtree=0 / bitrate=1874 / ratetol=1.0 / qcomp=0.60 / qpmin=0 / qpmax=69 / qpstep=4 / cplxblur=20.0 / qblur=0.5 / vbv_maxrate=50000 / vbv_bufsize=62500 / nal_hrd=none / filler=0 / ip_ratio=1.40 / pb_ratio=1.30 / aq=1:1.00
Язык : English
Default : Да
Forced : Нет
Аудио #1
Идентификатор : 2
Формат : AC-3
Формат/Информация : Audio Coding 3
Расширение режима : CM (complete main)
Параметр Endianness формата : Big
Идентификатор кодека : A_AC3
Продолжительность : 1 ч. 31 м.
Вид битрейта : Постоянный
Битрейт : 192 Кбит/сек
Каналы : 2 канала
Расположение каналов : Front: L R
Частота : 48,0 КГц
Частота кадров : 31,250 кадров/сек (1536 spf)
Битовая глубина : 16 бит
Метод сжатия : С потерями
Размер потока : 125 Мбайт (8%)
Заголовок : MVO [HDRezka Studio]
Язык : Russian
Default : Да
Forced : Нет
Аудио #2
Идентификатор : 3
Формат : AC-3
Формат/Информация : Audio Coding 3
Расширение режима : CM (complete main)
Параметр Endianness формата : Big
Идентификатор кодека : A_AC3
Продолжительность : 1 ч. 31 м.
Вид битрейта : Постоянный
Битрейт : 448 Кбит/сек
Каналы : 6 каналов
Расположение каналов : Front: L C R, Side: L R, LFE
Частота : 48,0 КГц
Частота кадров : 31,250 кадров/сек (1536 spf)
Битовая глубина : 16 бит
Метод сжатия : С потерями
Размер потока : 293 Мбайт (18%)
Заголовок : [Original]
Язык : English
Default : Нет
Forced : Нет
Текст
Идентификатор : 4
Формат : UTF-8
Идентификатор кодека : S_TEXT/UTF8
Идентификатор кодека/Информация : UTF-8 Plain Text
Продолжительность : 1 ч. 18 м.
Битрейт : 36 бит/сек
Count of elements : 753
Размер потока : 21,0 Кбайт (0%)
Заголовок : Full
Язык : English
Default : Нет
Forced : Нет
Меню
00:00:00.000 : en:Chapter 01
00:07:52.096 : en:Chapter 02
00:16:37.454 : en:Chapter 03
00:24:22.919 : en:Chapter 04
00:29:14.836 : en:Chapter 05
00:40:00.064 : en:Chapter 06
00:47:09.660 : en:Chapter 07
00:56:05.362 : en:Chapter 08
01:06:56.095 : en:Chapter 09
01:11:38.377 : en:Chapter 10
01:18:31.748 : en:Chapter 11
01:25:20.073 : en:Chapter 12

 
 
 

_________________
На вопрсы когда, а можно и т.д. не отвечаю!



 Профиль
 
Ответить с цитатой  
Понравилась тема расскажи друзьям!


  • Торрент

Наследие застывшая кровь / Cold Blood Legacy (Фридерик Петижан) [2019 г., Боевик, триллер, BDRip-AVC] MVO | HDRezka Studio.torrent 
Зарегистрирован:  10 сен 2019, 19:43  HASH|4a1f0959a8d1e61a80da1552b7441c719711bba3| (Google it!)
Статус:  √Проверено | admin
Торрент:  Размер: 1.6 ГБ | Скачан: 1104 раз | Торрент файл: 16.55 КБ  
Здоровье:   100%
Поделиться:
 
Как качать?
Как качать?
X
Скачайте торрент и откройте его в своем клиенте
uTorrent

скачать программу,
дождитесь окончания загрузки.
* Как смотреть?
Как смотреть?
X

Для работы Magic Player
Вам необходимо установить
Ace Stream P2P Multimedia Plug-in

Установить

Для работы Magic Player
Вам необходимо включить
Ace Stream P2P Multimedia Plug-in

Инструкция
Показать сообщения за:  Поле сортировки  
Начать новую тему Ответить на тему  [ 1 сообщение ] 

   Похожие торренты   Автор   Ответы   Просмотры   Последнее сообщение 
Непрочитанные сообщения Скачать торрент Магнет ссылка √Проверено Перейти к первому непрочитанному сообщениюНаследие: Застывшая кровь / Хладнокровный / Cold Blood Legacy (2019) BDRip-AVC от OlLanDGroup | D, P | iTunes За каждые 1.6 байт. аплоада (сидирования) этого торрента начисляется бонус: 1.000

в форуме Фильмы BDRip / BDRip 720 / BDRip 1080 /BDRip-AVC, Размер: 1.85 ГБ, Здоровье: 100%

admin

0
196|64

11
556

16 сен 2019, 18:18

admin Перейти к последнему сообщению

Непрочитанные сообщения Скачать торрент Магнет ссылка √Проверено Перейти к первому непрочитанному сообщениюЧеловек-паук: Вдали от дома / Spider-Man: Far from Home (Джон Уоттс) [2019 г., фантастика, боевик, приключения, HDRip] MVO | HDrezka Studio За каждые 1.6 байт. аплоада (сидирования) этого торрента начисляется бонус: 1.000

в форуме Фильмы 2015-2019 г., Размер: 1.46 ГБ, Здоровье: 100%

admin

0
203|11

8
2900

16 сен 2019, 20:16

admin Перейти к последнему сообщению

Непрочитанные сообщения Скачать торрент Магнет ссылка √Проверено Перейти к первому непрочитанному сообщениюБудто во сне / State Like Sleep [2018, Драма, триллер, детектив, WEB-DLRip-AVC | HDRezka Studio] За каждые 1.6 байт. аплоада (сидирования) этого торрента начисляется бонус: 1.000

в форуме Фильмы WEB-DLRip / WEB-DLRip 720 / WEB-DLRip 1080, Размер: 1.49 ГБ, Здоровье: 100%

admin

0
36|2

19
808

11 сен 2019, 20:00

admin Перейти к последнему сообщению

Непрочитанные сообщения Скачать торрент Магнет ссылка √Проверено Перейти к первому непрочитанному сообщениюЧеловек-паук: Вдали от дома / Spider-Man: Far from Home (2019) WEBRip 1080p | HDRezka Studio За каждые 1.6 байт. аплоада (сидирования) этого торрента начисляется бонус: 1.000

в форуме Фильмы WEB-DLRip / WEB-DLRip 720 / WEB-DLRip 1080, Размер: 4.56 ГБ, Здоровье: 100%

admin

0
4933|576

13
35103

16 сен 2019, 18:37

admin Перейти к последнему сообщению

Непрочитанные сообщения Скачать торрент Магнет ссылка √Проверено Перейти к первому непрочитанному сообщениюЧеловек-паук: Вдали от дома / Spider-Man: Far from Home (2019) WEB-DLRip от MegaPeer | HDRezka Studio За каждые 1.6 байт. аплоада (сидирования) этого торрента начисляется бонус: 1.000

в форуме Фильмы WEB-DLRip / WEB-DLRip 720 / WEB-DLRip 1080, Размер: 1.47 ГБ, Здоровье: 100%

admin

0
334|194

7
589

Вчера, 18:13

admin Перейти к последнему сообщению



Кто сейчас на конференции

Сейчас этот форум просматривают: нет зарегистрированных пользователей и гости: 2


Вы не можете начинать темы
Вы не можете отвечать на сообщения
Вы не можете редактировать свои сообщения
Вы не можете удалять свои сообщения
Вы не можете добавлять вложения

Найти:
Перейти: