Начать новую тему Ответить на тему  [ 1 сообщение ] 
Статистика раздачи
Размер|   2.59 ГБ    |   2 784 822 437 байт   
Раздают: 16  [0 байт/сек]   Качают: 3 [0 байт/сек]    
Последний личер: | 17 часов 24 минуты 15 секунд назад  | (Google it!)
Автор Сообщение
Непрочитанное сообщение Добавлено: 28 июн 2020, 19:50 
Ответить с цитатой
Не в сети
Администратор
Администратор
Аватара пользователя


Открыть статистику

Раздал: 6.31 ТБ
Скачал: 47.5 ГБ
Ратио: 1134.983


Зарегистрирован: 01 июл 2016, 17:16
Сообщения: 2851
Баллы репутации: 10
За самый скачиваемый релиз
Медали: 8
за участие (1) Создание сайта (1) За 100 релизов (1) за 200 релизов (1)
За 500 релизов (1) За 1000 релизов (1) Кандидат на повышение (1) Подписчику в группе ВК (1)
Железный Человек 3 / Iron Man 3 (2013) BDRip 1080p | Дополнительные материалы | Sub 

Информация о фильме
Название: Железный Человек 3
Оригинальное название: Iron Man 3
Год выпуска: 2013
Жанр: Фантастика, боевик, приключения
Режиссер: Шейн Блэк
В ролях: Роберт Дауни мл., Гвинет Пэлтроу, Дон Чидл, Гай Пирс, Бен Кингсли, Джеймс Бэдж Дэйл, Ребекка Холл, Тай Симпкинс, Уильям Сэдлер, Джон Фавро

О фильме: Когда мир Старка рушится на его глазах по вине неизвестных противников, Тони жаждет найти виновных и свести с ними счеты. Оказавшись в безвыходной ситуации, Старк может рассчитывать только на себя и свою изобретательность, чтобы защитить тех, кто ему дорог. Это становится настоящим испытанием для героя, которому придется не только сражаться с коварным врагом, но и разобраться в себе, чтобы найти ответ на вопрос, который давно его тревожит: что важнее — человек или костюм?



● Источник #1: Iron.Man.3.2013.1080p.BluRay.AVC.DTS-HD.MA.7.1-PublicHD
● Источник #2: Iron Man 3 2013 1080p US Blu-ray AVC DTS-HD MA 7.1 -t44
● Все материалы с русскими субтитрами

Страна: США
Продолжительность: 00:58:34
Перевод: Субтитры

Файл
Кодек: H264
Качество: BDRip 1080p
Видео: 1920x1080 (16:9), 23,976 fps, H264, ~8000 kbps avg
Звук: 48 kHz, AC3, 6 ch, 640 Кбит/с
Субтитры: Русские, английские


● Deconstructing the Scene ''Air Force One Attack'' (08:43)
● Marvel's Iron Man: Unmasked (10:59)
● Marvel One-Shot ''Agent Carter'' (15:29)
● Gag Reel (05:07)
● Exclusive Look at ''Thor: The Dark World'' (01:53)
● 10 Deleted & Extended Scenes (16:20)
General
Unique ID : 200840863939453190101064032434520896853 (0x97188B1BB8EC2D3E9EA690C7D3ECB555)
Complete name : Marvel's Iron Man ''Unmasked''.mkv
Format : Matroska
Format version : Version 4
File size : 806 MiB
Duration : 10 min 59 s
Overall bit rate : 10.2 Mb/s
Movie name : Iron Man 3 (2013) [Extras | BDRip 1080p] by AlcohoLiTTO
Encoded date : UTC 2020-06-26 19:28:54
Writing application : mkvmerge v8.3.0 ('Over the Horizon') 32bit
Writing library : libebml v1.3.1 + libmatroska v1.4.2
Cover : Yes
Attachments : Cover.jpg

Video
ID : 1
Format : AVC
Format/Info : Advanced Video Codec
Format profile : High@L5
Format settings : CABAC / 5 Ref Frames
Format settings, CABAC : Yes
Format settings, Reference : 5 frames
Muxing mode : Container profile=High@4.1
Codec ID : V_MPEG4/ISO/AVC
Duration : 10 min 59 s
Bit rate : 9 586 kb/s
Width : 1 920 pixels
Height : 1 080 pixels
Display aspect ratio : 16:9
Frame rate mode : Constant
Frame rate : 23.976 (24000/1001) FPS
Color space : YUV
Chroma subsampling : 4:2:0
Bit depth : 8 bits
Scan type : Progressive
Bits/(Pixel*Frame) : 0.193
Stream size : 754 MiB (94%)
Writing library : x264 core 157 r2958 57baac4
Encoding settings : cabac=1 / ref=5 / deblock=1:-3:-3 / analyse=0x3:0x113 / me=umh / subme=10 / psy=1 / psy_rd=1.05:0.00 / mixed_ref=1 / me_range=32 / chroma_me=1 / trellis=2 / 8x8dct=1 / cqm=0 / deadzone=21,11 / fast_pskip=0 / chroma_qp_offset=-2 / threads=8 / lookahead_threads=1 / sliced_threads=0 / nr=0 / decimate=0 / interlaced=0 / bluray_compat=0 / constrained_intra=0 / bframes=8 / b_pyramid=2 / b_adapt=2 / b_bias=0 / direct=3 / weightb=1 / open_gop=1 / weightp=2 / keyint=240 / keyint_min=24 / scenecut=40 / intra_refresh=0 / rc_lookahead=60 / rc=crf / mbtree=0 / crf=22.0 / qcomp=0.80 / qpmin=0 / qpmax=69 / qpstep=4 / vbv_maxrate=50000 / vbv_bufsize=62500 / crf_max=22.0 / nal_hrd=none / filler=0 / ip_ratio=1.30 / pb_ratio=1.20 / aq=2:0.50
Language : English
Default : Yes
Forced : No

Audio
ID : 2
Format : AC-3
Format/Info : Audio Coding 3
Commercial name : Dolby Digital
Codec ID : A_AC3
Duration : 10 min 59 s
Bit rate mode : Constant
Bit rate : 640 kb/s
Channel(s) : 6 channels
Channel layout : L R C LFE Ls Rs
Sampling rate : 48.0 kHz
Frame rate : 31.250 FPS (1536 SPF)
Compression mode : Lossy
Stream size : 50.3 MiB (6%)
Language : English
Service kind : Complete Main
Default : Yes
Forced : No

Text #1
ID : 3
Format : UTF-8
Codec ID : S_TEXT/UTF8
Codec ID/Info : UTF-8 Plain Text
Duration : 10 min 38 s
Bit rate : 185 b/s
Count of elements : 247
Stream size : 14.4 KiB (0%)
Language : Russian
Default : Yes
Forced : No

Text #2
ID : 4
Format : UTF-8
Codec ID : S_TEXT/UTF8
Codec ID/Info : UTF-8 Plain Text
Duration : 10 min 38 s
Bit rate : 134 b/s
Count of elements : 231
Stream size : 10.5 KiB (0%)
Language : English
Default : No
Forced : No



Релиз подготовлен:


_________________



 Профиль
 
 
Понравилась тема расскажи друзьям!


Железный Человек 3 / Iron Man 3 (2013) BDRip 1080p | Дополнительные материалы | Sub.torrent 
Зарегистрирован:  28 июн 2020, 19:50  HASH|b437ca53486389801cda133196a9fa1445b68d60| (Google it!)
Статус:  √ Проверен  хакер (28 июн 2020, 19:50)
Торрент:  Размер: 2.59 ГБ | Скачан: 158 раз | Торрент файл: 5.29 КБ  
Приватный:    Нет (DHT включён)
Здоровье:   100%
Поделиться:
 
Как качать?
Как качать?
X
Скачайте торрент и откройте его в своем клиенте
uTorrent

скачать программу,
дождитесь окончания загрузки.
* Как смотреть?
Как смотреть?
X

Для работы Magic Player
Вам необходимо установить
Ace Stream P2P Multimedia Plug-in

Установить

Для работы Magic Player
Вам необходимо включить
Ace Stream P2P Multimedia Plug-in

Инструкция
Показать сообщения за:  Поле сортировки  
Начать новую тему Ответить на тему  [ 1 сообщение ] 

   Похожие торренты   Автор   Ответы   Просмотры   Последнее сообщение 
Непрочитанные сообщения Скачать торрент Магнет ссылка √ Проверен Перейти к первому непрочитанному сообщениюМстители: Война Бесконечности / Avengers: Infinity War (2018) BDRip 1080p | Дополнительные материалы | Sub За каждые 2.59 байт. аплоада (сидирования) этого торрента начисляется бонус: 2.000

в форуме Раздачи не вошедшие в категории, Размер: 3.17 ГБ, Здоровье: 100%

хакер

0
17|4

205
1137

19 апр 2020, 12:38

хакер Перейти к последнему сообщению

Непрочитанные сообщения Скачать торрент Магнет ссылка √ Проверен Перейти к первому непрочитанному сообщениюЖелезное небо 2: Грядущая раса / Iron Sky: The Coming Race (2019) BDRip За каждые 2.59 байт. аплоада (сидирования) этого торрента начисляется бонус: 2.000

в форуме Фильмы HDRip / BDRIp / 720, 1080, Размер: 1.42 ГБ, Здоровье: 100%

хакер

0
828|28

276
26499

12 мар 2020, 20:38

хакер Перейти к последнему сообщению

Непрочитанные сообщения Скачать торрент Магнет ссылка √ Проверен Перейти к первому непрочитанному сообщениюСквозь снег / Snowpiercer (Чжун Хо Пон) [2013 г., Фантастика, боевик, драма, BDRip 1080p] | iTunes За каждые 2.59 байт. аплоада (сидирования) этого торрента начисляется бонус: 2.000

в форуме Фильмы HDRip / BDRIp / 720, 1080, Размер: 7.69 ГБ, Здоровье: 100%

хакер

0
90|7

342
4868

28 фев 2020, 22:20

хакер Перейти к последнему сообщению

Непрочитанные сообщения Скачать торрент Магнет ссылка √ Проверен Перейти к первому непрочитанному сообщениюНаталья Мар - Железный Аспид. Война (2020) MP3 За каждые 2.59 байт. аплоада (сидирования) этого торрента начисляется бонус: 2.000

в форуме Фантастика и фэнтези, Размер: 924.58 МБ, Здоровье: 100%

хакер

0
32|0

64
232

16 май 2020, 06:05

хакер Перейти к последнему сообщению

Непрочитанные сообщения Скачать торрент Магнет ссылка √ Проверен Перейти к первому непрочитанному сообщениюЧеловек-невидимка / The Invisible Man (2020) BDRip-AVC | iTunes За каждые 2.59 байт. аплоада (сидирования) этого торрента начисляется бонус: 2.000

в форуме Фильмы HDRip / BDRIp / 720, 1080, Размер: 2.84 ГБ, Здоровье: 100%

K15

0
66|5

212
3781

15 май 2020, 21:02

K15 Перейти к последнему сообщению



Кто сейчас на конференции

Сейчас этот форум просматривают: нет зарегистрированных пользователей и гости: 1


Вы не можете начинать темы
Вы не можете отвечать на сообщения
Вы не можете редактировать свои сообщения
Вы не можете удалять свои сообщения
Вы не можете добавлять вложения

Найти:
Перейти:  
cron
!ВНИМАНИЕ!

Сайт не распространяет и не хранит электронные версии произведений, а лишь предоставляет доступ к создаваемому пользователями каталогу ссылок на торрент-файлы, которые содержат только списки хеш-сумм, убедительная просьба с жалобами обращаться напрямую к пользователю.
The site does not extend and does not store electronic(digital) versions of products, and only gives access to a reference catalogue created by users on torrent-files which contain only lists of the hash-sums, the earnest entreaty, with complaints(abuse) to access directly to the user.
Привет, меня зовут Ёко, я что-то типа ангела хранителя Mytorrnado club! (Если вы попали на наш портал, советуем задержаться у нас и посмотрель материалы.А лучше всего оставайтесь и делитесь своими файлами со всем народом.Кроме этого вы сможете просмотреть нужный фильм в оригинальном качестве.Регистрируйтесь и воспользуйтесь всеми опциями трекера.)
ppkBB3cker v.2 © 2008-2014 @ PPK