Сообщения без ответов | Активные темы Непрочитанные сообщения




Начать новую тему Ответить на тему  [ 1 сообщение ] 
Автор Сообщение
 Заголовок сообщения: Выше неба (2019) WEB-DLRip | iTunes
Непрочитанное сообщениеДобавлено: 15 авг 2019, 18:14 
Не в сети
Администратор
Администратор
Аватара пользователя
Раздал: 4.26 ГБ
Скачал: 6.28 ГБ
Ратио: 0.678


Зарегистрирован: 01 июл 2016, 17:16
Сообщения: 1301
Баллы репутации: 110
За участие в улучшении сайтаЗа участие в улучшении сайта
Медали: 6
за участие (1) Создание сайта (1) За 100 релизов (1) за 200 релизов (1) За 500 релизов (1)
За 1000 релизов (1)
Информация о фильме
Название: Выше неба
Год выхода: 2019
Жанр: Драма, мелодрама, детектив
Страна: Россия
Перевод: Не требуется
Продолжительность: 01:43:39
Режиссер: Оксана Карас
В ролях: Таисия Вилкова, Филипп Авдеев, Полина Виторган, Дарья Жовнер, Виктория Толстоганова, Алексей Агранович, Артем Немов, Анастасия Богатырева, Ирина Денисова, Валентин Самохин и др.

О фильме: Молодая девушка проводит лето на загородном курорте под бдительным присмотром матери. Там её внимание привлекает парень, прошлое которого окутано тайной. Девушка не догадывается, что после этой встречи её жизнь изменится навсегда, а чувствам будет суждено взлететь выше неба…



Файл
Формат: AVI
Качество: WEB-DLRip
Видео: Xvid 73, 720x304, ~1619 kbps, 24,000 fps
Звук: русский, AC3, 5.1 ch, 48 kHz, 384 kbps
Субтитры: нет
Общее
Полное имя : E:Torrent2VysheNebaWEBDLRip.avi
Формат : AVI
Формат/Информация : Audio Video Interleave
Профиль формата : OpenDML
Размер файла : 1,46 Гбайт
Продолжительность : 1 ч. 43 м.
Общий поток : 2015 Кбит/сек
Программа кодирования : XviD4PSP 6.0 / 53.6.0

Видео
Идентификатор : 0
Формат : MPEG-4 Visual
Профиль формата : Advanced Simple@L5
Настройки формата : BVOP1 / Custom Matrix
Параметр BVOP формата : 1
Параметр QPel формата : Нет
Параметр GMC формата : Без точки перехода
Параметр матрицы формата : Выборочная
Идентификатор кодека : XVID
Идентификатор кодека/Подсказка : XviD
Продолжительность : 1 ч. 43 м.
Битрейт : 1619 Кбит/сек
Ширина : 720 пикселей
Высота : 304 пикселя
Соотношение сторон : 2,35:1
Частота кадров : 24,000 кадра/сек
Цветовое пространство : YUV
Субдискретизация насыщенности : 4:2:0
Битовая глубина : 8 бит
Тип развёртки : Прогрессивная
Метод сжатия : С потерями
Бит/(Пиксели*Кадры) : 0.308
Размер потока : 1,17 Гбайт (80%)
Библиотека кодирования : XviD 73

Аудио
Идентификатор : 1
Формат : AC-3
Формат/Информация : Audio Coding 3
Параметр Endianness формата : Big
Идентификатор кодека : 2000
Продолжительность : 1 ч. 43 м.
Вид битрейта : Постоянный
Битрейт : 384 Кбит/сек
Каналы : 6 каналов
Расположение каналов : Front: L C R, Side: L R, LFE
Частота : 48,0 КГц
Частота кадров : 31,250 кадров/сек (1536 SPF)
Битовая глубина : 16 бит
Метод сжатия : С потерями
Размер потока : 285 Мбайт (19%)
Выравнивание : Соединение по промежуткам
Продолжительность промежутка : 32 мс. (0,77 видеокадр)
Заголовок : rus





_________________
На вопрсы когда, а можно и т.д. не отвечаю!



 Профиль
 
Ответить с цитатой  
Понравилась тема расскажи друзьям!


Показать сообщения за:  Поле сортировки  
Начать новую тему Ответить на тему  [ 1 сообщение ] 

   Похожие торренты   Автор   Ответы   Просмотры   Последнее сообщение 
Непрочитанные сообщения Скачать торрент Магнет ссылка √Проверено Перейти к первому непрочитанному сообщениюИскусство обмана / Lying and Stealing (2019) WEB-DLRip-AVC | D | iTunes За каждые 740.85 МБ. аплоада (сидирования) этого торрента начисляется бонус: 1.000

в форуме Фильмы WEB-DLRip / WEB-DLRip 720 / WEB-DLRip 1080, Размер: 740.85 МБ, Здоровье: 100%

admin

0
108|5

15
1146

12 сен 2019, 14:35

admin Перейти к последнему сообщению

Непрочитанные сообщения Скачать торрент Магнет ссылка √Проверено Перейти к первому непрочитанному сообщениюДетские игры / Child's Play (2019) WEB-DLRip от MegaPeer | iTunes За каждые 1.46 ГБ. аплоада (сидирования) этого торрента начисляется бонус: 1.000

в форуме Фильмы WEB-DLRip / WEB-DLRip 720 / WEB-DLRip 1080, Размер: 1.46 ГБ, Здоровье: 100%

admin

0
649|23

20
12158

12 сен 2019, 14:28

admin Перейти к последнему сообщению

Непрочитанные сообщения Скачать торрент Магнет ссылка √Проверено Перейти к первому непрочитанному сообщениюГолоса с того света / Morto Nao Fala [2018, ужасы, мистика, триллер, WEB-DLRip | iTunes] За каждые 1.46 ГБ. аплоада (сидирования) этого торрента начисляется бонус: 1.000

в форуме Фильмы WEB-DLRip / WEB-DLRip 720 / WEB-DLRip 1080, Размер: 1.46 ГБ, Здоровье: 100%

admin

0
969|96

9
8620

15 сен 2019, 09:58

admin Перейти к последнему сообщению

Непрочитанные сообщения Скачать торрент Магнет ссылка √Проверено Перейти к первому непрочитанному сообщениюПлюс один / Plus One (2019) BDRip-AVC | D, P | iTunes За каждые 1.82 ГБ. аплоада (сидирования) этого торрента начисляется бонус: 1.000

в форуме Фильмы BDRip / BDRip 720 / BDRip 1080 /BDRip-AVC, Размер: 1.82 ГБ, Здоровье: 100%

admin

0
41|6

15
934

11 сен 2019, 18:47

admin Перейти к последнему сообщению

Непрочитанные сообщения Скачать торрент Магнет ссылка √Проверено Перейти к первому непрочитанному сообщениюНаследие: Застывшая кровь / Хладнокровный / Cold Blood Legacy (2019) BDRip-AVC от OlLanDGroup | D, P | iTunes За каждые 1.85 ГБ. аплоада (сидирования) этого торрента начисляется бонус: 1.000

в форуме Фильмы BDRip / BDRip 720 / BDRip 1080 /BDRip-AVC, Размер: 1.85 ГБ, Здоровье: 100%

admin

0
196|64

11
556

16 сен 2019, 18:18

admin Перейти к последнему сообщению



Кто сейчас на конференции

Сейчас этот форум просматривают: нет зарегистрированных пользователей и гости: 1


Вы не можете начинать темы
Вы не можете отвечать на сообщения
Вы не можете редактировать свои сообщения
Вы не можете удалять свои сообщения
Вы не можете добавлять вложения

Найти:
Перейти: