Начать новую тему Ответить на тему  [ 1 сообщение ] 
Статистика раздачи
Размер|   745.47 МБ    |   781 681 682 байт   
Раздают: 1  [0 байт/сек]   Качают: 1 [0 байт/сек]    
Последний личер: | 4 дня 22 часа 16 минут 13 секунд назад  | (Google it!)
Автор Сообщение
Непрочитанное сообщение Добавлено: 14 мар 2020, 22:10 
Ответить с цитатой
Не в сети
Администратор
Администратор
Аватара пользователя


Открыть статистику

Раздал: 4.87 ТБ
Скачал: 6.65 ГБ
Ратио: 1749.741


Зарегистрирован: 01 июл 2016, 17:16
Сообщения: 2405
Баллы репутации: 10
За самый скачиваемый релиз
Медали: 8
за участие (1) Создание сайта (1) За 100 релизов (1) за 200 релизов (1)
За 500 релизов (1) За 1000 релизов (1) Кандидат на повышение (1) Подписчику в группе ВК (1)
Криминальный квартет (1989) HDTVRip-AVC 

Информация о фильме
Название: Криминальный квартет
Год выхода: 1989
Жанр: Боевик, криминал
Режиссер: Александр Муратов
В ролях: Николай Караченцов, Владимир Стеклов, Борис Щербаков, Владимир Еремин, Неле Савиченко-Климене, Иван Мурадханов, Вадим Спиридонов, Игорь Ясулович, Семен Фарада, Вадим Яковлев, Борис Клюев, Алексей Шейнин, Юрий Катин-Ярцев, Юрий Гусев, Софья Горшкова, Лев Прыгунов, Олег Анофриев, Юрий Назаров, Сергей Лосев, Валентина Березуцкая, Даниил Нетребин, Виктор Филиппов, Михаил Чигарев, Галина Казакова, Галина Самойлова-Ледогорова, Григорий Маликов, Юрий Доронин, Герман Полосков, Гурген Тонунц, Георгиос Совчис, Дмитрий Матвеев, Александр Кузьмичев, Владимир Козелков, Владимир Трещалов

О фильме:
Следователь обнаруживает на торговой базе крупную партию бракованной обуви и заводит по этому поводу дело. Внезапно у него пропадает сын. Вскоре раздается звонок. Похитители требуют, чтобы он закрыл дело, если хочет увидеть своего сына живым…Герой рассказывает об этом своим друзьям, двум оперативникам и журналисту. Они дружат еще с детского дома и готовы ради товарища пойти на все! Четверо бесстрашных мужчин бросают вызов мафии...



Страна: СССР
Студия: Мосфильм
Продолжительность: 01:24:20
Язык: Русский

Файл
Формат: MKV
Качество: HDTVRip-AVC
Видео: MPEG-4 AVC, 672x504, - 1158 Кбит/с
Аудио: AAC-HE, 2 ch, - 76 Кбит/с
Субтитры: Нет

Медиа инфо: Общее
Уникальный идентификатор : 61992817483888480130859371945771384534 (0x2EA361E1E172EAB66F5975CE226BBED6)
Полное имя : D:MOVIESKriminalnyj.kvartet.1989.HDTVRip-AVC.ExKinoRay.mkv
Формат : Matroska
Версия формата : Version 4 / Version 2
Размер файла : 745 Мбайт
Продолжительность : 1 ч. 24 м.
Общий поток : 1236 Кбит/сек
Дата кодирования : UTC 2020-03-14 12:11:34
Программа кодирования : mkvmerge v35.0.0 ('All The Love In The World') 64-bit
Библиотека кодирования : libebml v1.3.9 + libmatroska v1.5.2

Видео
Идентификатор : 1
Формат : AVC
Формат/Информация : Advanced Video Codec
Профиль формата : High@L4.1
Параметр CABAC формата : Да
Параметр RefFrames формата : 12 кадров
Идентификатор кодека : V_MPEG4/ISO/AVC
Продолжительность : 1 ч. 24 м.
Битрейт : 1158 Кбит/сек
Ширина : 672 пикселя
Высота : 504 пикселя
Соотношение сторон : 4:3
Режим частоты кадров : Постоянный
Частота кадров : 25,000 кадров/сек
Цветовое пространство : YUV
Субдискретизация насыщенности : 4:2:0
Битовая глубина : 8 бит
Тип развёртки : Прогрессивная
Бит/(Пиксели*Кадры) : 0.137
Размер потока : 698 Мбайт (94%)
Библиотека кодирования : x264 core 159 r2991 1771b55
Настройки программы : cabac=1 / ref=12 / deblock=1:-3:-3 / analyse=0x3:0x133 / me=umh / subme=10 / psy=1 / psy_rd=1.00:0.10 / mixed_ref=1 / me_range=32 / chroma_me=1 / trellis=2 / 8x8dct=1 / cqm=0 / deadzone=21,11 / fast_pskip=0 / chroma_qp_offset=-3 / threads=6 / lookahead_threads=1 / sliced_threads=0 / nr=0 / decimate=0 / interlaced=0 / bluray_compat=0 / constrained_intra=0 / bframes=12 / b_pyramid=2 / b_adapt=2 / b_bias=0 / direct=3 / weightb=1 / open_gop=0 / weightp=2 / keyint=250 / keyint_min=25 / scenecut=40 / intra_refresh=0 / rc_lookahead=40 / rc=2pass / mbtree=1 / bitrate=1158 / ratetol=1.0 / qcomp=0.70 / qpmin=0 / qpmax=69 / qpstep=4 / cplxblur=20.0 / qblur=0.5 / ip_ratio=1.40 / aq=3:1.00
Default : Да
Forced : Нет

Аудио
Идентификатор : 2
Формат : AAC
Формат/Информация : Advanced Audio Codec
Профиль формата : HE-AAC / LC
Идентификатор кодека : A_AAC
Продолжительность : 1 ч. 24 м.
Битрейт : 76,0 Кбит/сек
Каналы : 2 канала
Расположение каналов : Front: L R
Частота : 48,0 КГц / 24,0 КГц
Частота кадров : 23,438 кадра/сек (1024 SPF)
Метод сжатия : С потерями
Задержка видео : 31 мс.
Размер потока : 45,8 Мбайт (6%)
Язык : Russian
Default : Да
Forced : Нет


Релиз подготовлен:
Релиз группа:

_________________



 Профиль
 
 
Понравилась тема расскажи друзьям!


Криминальный квартет (1989) HDTVRip-AVC.torrent 
Зарегистрирован:  14 мар 2020, 22:10  HASH|861f6d4d58d5cf40b47881a700d43449b9cebbc2| (Google it!)
Статус:  √ Проверен  хакер (14 мар 2020, 22:10)
Торрент:  Размер: 745.47 МБ | Скачан: 226 раз | Торрент файл: 15.62 КБ  
Приватный:    Нет (DHT включён)
Здоровье:   100%
Поделиться:
 
Как качать?
Как качать?
X
Скачайте торрент и откройте его в своем клиенте
uTorrent

скачать программу,
дождитесь окончания загрузки.
* Как смотреть?
Как смотреть?
X

Для работы Magic Player
Вам необходимо установить
Ace Stream P2P Multimedia Plug-in

Установить

Для работы Magic Player
Вам необходимо включить
Ace Stream P2P Multimedia Plug-in

Инструкция
Показать сообщения за:  Поле сортировки  
Начать новую тему Ответить на тему  [ 1 сообщение ] 

   Похожие торренты   Автор   Ответы   Просмотры   Последнее сообщение 
Непрочитанные сообщения Скачать торрент Магнет ссылка √ Проверен Перейти к первому непрочитанному сообщениюПолицейский роман / 1-2 серии из 2 [2020, Криминальный фильм, мелодрама, WEB-DLRip] За каждые 745.47 байт. аплоада (сидирования) этого торрента начисляется бонус: 2.000

в форуме Законченные русские сериалы, Размер: 1.15 ГБ, Здоровье: 100%

хакер

0
313|7

271
6499

22 фев 2020, 12:52

хакер Перейти к последнему сообщению

Непрочитанные сообщения Скачать торрент Магнет ссылка √ Проверен Перейти к первому непрочитанному сообщениюСавраска (1989) SATRip-AVC За каждые 745.47 байт. аплоада (сидирования) этого торрента начисляется бонус: 2.000

в форуме Фильмы СССР, Размер: 1.39 ГБ, Здоровье: 100%

хакер

0
48|13

17
282

23 май 2020, 08:16

хакер Перейти к последнему сообщению

Непрочитанные сообщения Скачать торрент Магнет ссылка √ Проверен Перейти к первому непрочитанному сообщениюЛучшие из лучших / Best of the Best (1989) BDRip-AVC | D, P, P2 За каждые 745.47 байт. аплоада (сидирования) этого торрента начисляется бонус: 2.000

в форуме Фильмы до 2000 г., Размер: 2.13 ГБ, Здоровье: 100%

хакер

0
50|9

10
547

23 май 2020, 07:36

хакер Перейти к последнему сообщению

Непрочитанные сообщения Скачать торрент Магнет ссылка √ Проверен Перейти к первому непрочитанному сообщениюМоя мама – оборотень / My Mom's a Werewolf (1989) DVDRip | A За каждые 745.47 байт. аплоада (сидирования) этого торрента начисляется бонус: 2.000

в форуме Фильмы до 2000 г., Размер: 746.95 МБ, Здоровье: 100%

хакер

0
6|1

234
359

15 мар 2020, 10:50

хакер Перейти к последнему сообщению

Непрочитанные сообщения Скачать торрент Магнет ссылка √ Проверен Перейти к первому непрочитанному сообщениюРикошет / Ricochet (Серия 1-16 из 16)(Денис Карышев, Вячеслав Кириллов) [2019,Драма, криминальный фильм,WEB-DLRip - HEVC 1080p] ][DD5.1] За каждые 745.47 байт. аплоада (сидирования) этого торрента начисляется бонус: 2.000

в форуме Законченные русские сериалы, Размер: 18.27 ГБ, Здоровье: 100%

nikolai.baranov1955

0
2|1

283
0

07 апр 2020, 15:40

nikolai.baranov1955 Перейти к последнему сообщению



Кто сейчас на конференции

Сейчас этот форум просматривают: нет зарегистрированных пользователей и гости: 0


Вы не можете начинать темы
Вы не можете отвечать на сообщения
Вы не можете редактировать свои сообщения
Вы не можете удалять свои сообщения
Вы не можете добавлять вложения

Найти:
Перейти:  
cron
!ВНИМАНИЕ!

Сайт не распространяет и не хранит электронные версии произведений, а лишь предоставляет доступ к создаваемому пользователями каталогу ссылок на торрент-файлы, которые содержат только списки хеш-сумм, убедительная просьба с жалобами обращаться напрямую к пользователю.
The site does not extend and does not store electronic(digital) versions of products, and only gives access to a reference catalogue created by users on torrent-files which contain only lists of the hash-sums, the earnest entreaty, with complaints(abuse) to access directly to the user.
cron
Информационное сообщение...
Доброго времени суток! Если вы попали на наш портал, советуем задержаться у нас и посмотрель материалы.А лучше всего оставайтесь и делитесь своими файлами со всем народом.Кроме этого вы сможете просмотреть нужный фильм в оригинальном качестве или прослушать музыку.Регистрируйтесь и воспользуйтесь всеми опциями трекера.
ppkBB3cker v.2 © 2008-2014 @ PPK