Начать новую тему Ответить на тему  [ 1 сообщение ] 
Статистика раздачи
Размер|   988.98 МБ    |   1 037 017 654 байт   
Раздают: 45  [0 байт/сек]   Качают: 15 [0 байт/сек]    
Последний личер: | 12 дней 23 часа 54 минуты 41 секунду назад  | (Google it!)
Автор Сообщение
Непрочитанное сообщение Добавлено: 21 июл 2020, 06:47 
Ответить с цитатой
Не в сети
Администратор
Администратор
Аватара пользователя


Открыть статистику

Раздал: 7.52 ТБ
Скачал: 203.82 ГБ
Ратио: 1036.763


Зарегистрирован: 01 июл 2016, 17:16
Сообщения: 3085
Баллы репутации: 10
За самый скачиваемый релиз
Медали: 10
Активисту (1) за участие (1) Создание сайта (1) За 100 релизов (1) за 200 релизов (1)
За 500 релизов (1) За 1000 релизов (1) за 3000 релизов (1) Кандидат на повышение (1) Подписчику в группе ВК (1)
Очень страшная история (1986) WEBRip-AVC 

Информация о фильме
Название: Очень страшная история
Год выхода: 1986
Жанр: драма, семейный
Режиссер: Никита Хубов
В ролях: Андрей Козлов, Анатолий Юртаев, Вера Панасенкова, Елизавета Плаксина, Алексей Дорофеев, Вячеслав Баранов, Андрей Петров, Людмила Артемьева, Станислав Садальский

О фильме:
Пятиклассника Глеба Бородаева, внука известного писателя, избрали почетным членом литературного кружка. Вскоре кружок прекратил свое существование, что очень расстроило Глеба. Зазвав друзей на дачу, он решил напугать их, чтобы потом «спасти» и стать в их глазах героем… Фильм снят по одноимённой повести Анатолия Алексина.



Производство: СССР / Киностудия им. М. Горького
Продолжительность: 01:09:22
Перевод: не требуется

Файл
Качество: WEBRip-AVC
Формат: MKV
Видео: MPEG-4 AVC, 688x536 (1.28:1), 25.000 fps, 1800 kbps, 0.195 bit/pixel
Аудио: русский, AC3 2.0, 48 kHz, 192 kbps
Субтитры: русские вшитые отключаемые

Медиа инфо: Общее
Уникальный идентификатор : 239172399636734358853498023288199943535 (0xB3EEEDBAE6AB75F09762C04290FB956F)
Полное имя : Очень страшная история (1986).mkv
Формат : Matroska
Версия формата : Version 4
Размер файла : 989 Мбайт
Продолжительность : 1 ч. 9 м.
Общий поток : 1 993 Кбит/сек
Дата кодирования : UTC 2020-07-02 10:33:35
Программа кодирования : mkvmerge v7.9.0 ('Birds') 64bit
Библиотека кодирования : libebml v1.3.1 + libmatroska v1.4.2

Видео
Идентификатор : 1
Формат : AVC
Формат/Информация : Advanced Video Codec
Профиль формата : Baseline@L3
Настройки формата : 3 Ref Frames
Параметр CABAC формата : Нет
Параметр RefFrames формата : 3 кадра
Параметр GOP формата : N=1
Идентификатор кодека : V_MPEG4/ISO/AVC
Продолжительность : 1 ч. 9 м.
Битрейт : 1 800 Кбит/сек
Ширина : 688 пикселей
Высота : 536 пикселей
Соотношение сторон : 1,284
Режим частоты кадров : Постоянный
Частота кадров : 25,000 кадров/сек
Цветовое пространство : YUV
Субдискретизация насыщенности : 4:2:0
Битовая глубина : 8 бит
Тип развёртки : Прогрессивная
Бит/(Пиксели*Кадры) : 0.195
Размер потока : 874 Мбайт (88%)
Библиотека кодирования : x264 core 142 r2389 956c8d8
Настройки программы : cabac=0 / ref=3 / deblock=1:0:0 / analyse=0x1:0x131 / me=umh / subme=7 / psy=1 / psy_rd=1.00:0.40 / mixed_ref=1 / me_range=16 / chroma_me=1 / trellis=0 / 8x8dct=0 / cqm=0 / deadzone=21,11 / fast_pskip=0 / chroma_qp_offset=-2 / threads=12 / lookahead_threads=2 / sliced_threads=0 / nr=0 / decimate=1 / interlaced=0 / bluray_compat=0 / constrained_intra=0 / bframes=0 / weightp=0 / keyint=75 / keyint_min=26 / scenecut=40 / intra_refresh=0 / rc_lookahead=40 / rc=2pass / mbtree=0 / bitrate=1800 / ratetol=1.0 / qcomp=0.60 / qpmin=10 / qpmax=51 / qpstep=4 / cplxblur=20.0 / qblur=0.5 / vbv_maxrate=2000 / vbv_bufsize=2000 / nal_hrd=none / filler=0 / ip_ratio=1.40 / aq=1:1.00
Default : Да
Forced : Нет
Цветовой диапазон : Limited
Основные цвета : BT.601 PAL
Характеристики трансфера : BT.709
Коэффициенты матрицы : BT.601
Duration_Source : General_Duration

Аудио
Идентификатор : 2
Формат : AC-3
Формат/Информация : Audio Coding 3
Коммерческое название : Dolby Digital
Идентификатор кодека : A_AC3
Продолжительность : 1 ч. 9 м.
Вид битрейта : Постоянный
Битрейт : 192 Кбит/сек
Каналы : 2 канала
Channel layout : L R
Частота : 48,0 КГц
Частота кадров : 31,250 кадров/сек (1536 SPF)
Метод сжатия : С потерями
Размер потока : 95,3 Мбайт (10%)
Язык : Russian
Service kind : Complete Main
Default : Да
Forced : Нет
Duration_Source : General_Duration

Текст
Идентификатор : 3
Формат : UTF-8
Идентификатор кодека : S_TEXT/UTF8
Идентификатор кодека/Информация : UTF-8 Plain Text
Язык : Russian
Default : Нет
Forced : Нет


Релиз подготовлен:


_________________



 Профиль
 
 
Понравилась тема расскажи друзьям!


Очень страшная история (1986) WEBRip-AVC.torrent 
Зарегистрирован:  21 июл 2020, 06:47  HASH|21cb60788f63e794d8368017a4ff6c69e824e057| (Google it!)
Статус:  √ Проверен  хакер (21 июл 2020, 06:47)
Торрент:  Размер: 988.98 МБ | Скачан: 519 раз | Торрент файл: 20.31 КБ  
Приватный:    Нет (DHT включён)
Здоровье:   100%
Поделиться:
 
Как качать?
Как качать?
X
Скачайте торрент и откройте его в своем клиенте
uTorrent

скачать программу,
дождитесь окончания загрузки.
* Как смотреть?
Как смотреть?
X

Для работы Magic Player
Вам необходимо установить
Ace Stream P2P Multimedia Plug-in

Установить

Для работы Magic Player
Вам необходимо включить
Ace Stream P2P Multimedia Plug-in

Инструкция
Показать сообщения за:  Поле сортировки  
Начать новую тему Ответить на тему  [ 1 сообщение ] 

   Похожие торренты   Автор   Ответы   Просмотры   Последнее сообщение 
Непрочитанные сообщения Скачать торрент Магнет ссылка √ Проверен Перейти к первому непрочитанному сообщениюВсе для фронта. Оккупированные территории [2020, Документальный, история, WEBRip]

в форуме Документальные фильмы, Размер: 330.82 МБ, Здоровье: 100%

хакер

0
5|0

163
167

05 май 2020, 21:35

хакер Перейти к последнему сообщению

Непрочитанные сообщения Скачать торрент Магнет ссылка √ Проверен Перейти к первому непрочитанному сообщениюИсториада (Миф и структура абсолютизма) [2020, Документальный, история, WEBRip]

в форуме Документальные фильмы, Размер: 572.63 МБ, Здоровье: ???%

хакер

0
0|1

144
27

21 май 2020, 21:09

хакер Перейти к последнему сообщению

Непрочитанные сообщения Скачать торрент Магнет ссылка √ Проверен Перейти к первому непрочитанному сообщениюМаршалы Победы (Родион Малиновский) [2020, Документальный, история, WEBRip]

в форуме Документальные фильмы, Размер: 390.53 МБ, Здоровье: 100%

хакер

0
8|0

158
175

07 май 2020, 21:16

хакер Перейти к последнему сообщению

Непрочитанные сообщения Скачать торрент Магнет ссылка √ Проверен Перейти к первому непрочитанному сообщениюОчевидцы / 1-29 серии [2019, Документальный, мистика, история, драма, WEBRip] За каждые 988.98 байт. аплоада (сидирования) этого торрента начисляется бонус: 2.000

в форуме Документальные фильмы, Размер: 7.61 ГБ, Здоровье: 100%

хакер

0
3|3

324
14

07 апр 2020, 19:46

хакер Перейти к последнему сообщению

Непрочитанные сообщения Скачать торрент Магнет ссылка √ Проверен Перейти к первому непрочитанному сообщениюПервые в мире (14 фильмов) [2019-2020, Документальный, наука, техника, история, WEBRip] За каждые 988.98 байт. аплоада (сидирования) этого торрента начисляется бонус: 2.000

в форуме Документальные фильмы, Размер: 2.33 ГБ, Здоровье: 100%

хакер

0
8|1

151
36

14 июн 2020, 16:17

хакер Перейти к последнему сообщению



Кто сейчас на конференции

Сейчас этот форум просматривают: нет зарегистрированных пользователей и гости: 1


Вы не можете начинать темы
Вы не можете отвечать на сообщения
Вы не можете редактировать свои сообщения
Вы не можете удалять свои сообщения
Вы не можете добавлять вложения

Найти:
Перейти:  
cron
!ВНИМАНИЕ!

Сайт не распространяет и не хранит электронные версии произведений, а лишь предоставляет доступ к создаваемому пользователями каталогу ссылок на торрент-файлы, которые содержат только списки хеш-сумм, убедительная просьба с жалобами обращаться напрямую к пользователю.
The site does not extend and does not store electronic(digital) versions of products, and only gives access to a reference catalogue created by users on torrent-files which contain only lists of the hash-sums, the earnest entreaty, with complaints(abuse) to access directly to the user.
Привет, меня зовут Ёко, я что-то типа ангела хранителя Mytorrnado club! (Если вы попали на наш портал, советуем задержаться у нас и посмотрель материалы.А лучше всего оставайтесь и делитесь своими файлами со всем народом.Кроме этого вы сможете просмотреть нужный фильм в оригинальном качестве.Регистрируйтесь и воспользуйтесь всеми опциями трекера.)
ppkBB3cker v.2 © 2008-2014 @ PPK