Начать новую тему Ответить на тему  [ 1 сообщение ] 
Статистика раздачи
Размер|   1.46 ГБ    |   1 569 208 542 байт   
Раздают|   15   Качают|   0      
Последний личер: |  назад  | (Google it!)
Автор Сообщение
Сообщение Добавлено: 21 ноя 2019, 18:16 
Ответить с цитатой
Не в сети
Администратор
Администратор
Аватара пользователя
Раздал: 2.31 ГБ
Скачал: 6.13 ГБ
Ратио: 0.377


Зарегистрирован: 01 июл 2016, 17:16
Сообщения: 614
Баллы репутации: 10
За самый скачиваемый релиз
Медали: 4
за участие (1) Создание сайта (1) За 100 релизов (1) за 200 релизов (1)
Дора и Затерянный город | Dora and the Lost City of Gold (Джеймс Бобин) [2019 г., Приключения, семейный, HDRip] DUB»Скачать торрент

Дора и Затерянный город | Dora and the Lost City of Gold

Информация
Год выхода: 2019
Страна: США, Мексика, Австралия
Жанр: Приключения, семейный
Продолжительность: 01:42:27
Перевод: Дублированный [iTunes]
Cубтитры: Russian (Forced) - отдельно

Режиссер: Джеймс Бобин

В ролях: Изабела Монер, Эухенио Дербес, Майкл Пенья, Ева Лонгория, Джеффри Уолберг, Николас Кумбе, Мадлен Мэдден, Темуэра Моррисон, Бенисио Дель Торо, Дэнни Трехо, Мэдлин Миранда

Описание: Практически все детство Дора провела в джунглях, где работали ее родители-исследователи. Но никакие прежние приключения не могли подготовить девушку к опасностям старшей школы - непониманию, соперничеству, зависти. Вдобавок таинственным образом исчезают родители Доры. Но она не была бы собой, если бы опустила руки. Первая любовь, а также старые и новые друзья вдохновляют смелую девушку отправиться на поиски родных. На пути к цели их ждет масса испытаний, а также леденящая кровь загадка потерянной цивилизации...

Файл
Качество: HDRip
Формат: Avi
Видео кодек: XviD
Аудио кодек: AC3
Видео: XviD, 720x400 (16:9), 23.976 fps, 1 761 Kbps (0.255 bit/pixel)
Аудио: 48 kHz, AC3 Dolby Digital, 2/0 (L,C,), ~192 kbps Russian | iTunes
Dora.and.the.Lost.City.of.Gold.2019.BDRip/Dora.and.the.Lost.City.of.Gold.2019.BDRip.avi
Format : AVI
Format/Info : Audio Video Interleave
File size : 1.46 GiB
Duration : 1h 42mn
Overall bit rate : 2 042 Kbps
Director : #stillet
Writing application : VirtualDubMod 1.5.10.3 (build 2550/release)
Writing library : VirtualDubMod build 2550/release

Video
ID : 0
Format : MPEG-4 Visual
Format profile : Advanced Simple@L5
Format settings, BVOP : 2
Format settings, QPel : No
Format settings, GMC : No warppoints
Format settings, Matrix : Custom
Codec ID : XVID
Codec ID/Hint : XviD
Duration : 1h 42mn
Bit rate : 1 761 Kbps
Width : 720 pixels
Height : 400 pixels
Display aspect ratio : 16:9
Frame rate : 23.976 fps
Color space : YUV
Chroma subsampling : 4:2:0
Bit depth : 8 bits
Scan type : Progressive
Compression mode : Lossy
Bits/(Pixel*Frame) : 0.255
Stream size : 1.26 GiB (86%)
Writing library : XviD 67

Audio
ID : 1
Format : AC-3
Format/Info : Audio Coding 3
Mode extension : CM (complete main)
Format settings, Endianness : Big
Codec ID : 2000
Duration : 1h 42mn
Bit rate mode : Constant
Bit rate : 192 Kbps
Channel(s) : 2 channels
Channel positions : Front: L R
Sampling rate : 48.0 KHz
Bit depth : 16 bits
Compression mode : Lossy
Stream size : 141 MiB (9%)
Alignment : Split accross interleaves



_________________
На вопрсы когда, а можно и т.д. не отвечаю!


 Профиль
 
 
Понравилась тема расскажи друзьям!


  • Торрент

Дора и Затерянный город | Dora and the Lost City of Gold (Джеймс Бобин) [2019 г., Приключения, семейный, HDRip] DUB.torrent 
Зарегистрирован:  21 ноя 2019, 18:16  HASH|8ad2ff761fde5409a6afc70ecb9ac9ec338e7120| (Google it!)
Статус:  Проверено | admin
Торрент:  Размер: 1.46 ГБ | Скачан: 190 раз | Торрент файл: 117.58 КБ  
Здоровье:   100%
Поделиться:
 
Как качать?
Как качать?
X
Скачайте торрент и откройте его в своем клиенте
uTorrent

скачать программу,
дождитесь окончания загрузки.
* Как смотреть?
Как смотреть?
X

Для работы Magic Player
Вам необходимо установить
Ace Stream P2P Multimedia Plug-in

Установить

Для работы Magic Player
Вам необходимо включить
Ace Stream P2P Multimedia Plug-in

Инструкция
Показать сообщения за:  Поле сортировки  
Начать новую тему Ответить на тему  [ 1 сообщение ] 

   Похожие торренты   Автор   Ответы   Просмотры   Последнее сообщение 
В этой теме нет новых непрочитанных сообщений. Скачать торрент Магнет ссылка Проверено Дора и Затерянный город / Dora and the Lost City of Gold (2019) BDRip-AVC от ExKinoRay | iTunes За каждые 100 байт. аплоада (сидирования) этого торрента начисляется бонус: 1.000

в форуме Фильмы HDRip / BDRIp / 720, 1080, Размер: 2.28 ГБ, Здоровье: 100%

admin

0
295|24

132
8084

21 ноя 2019, 22:59

admin Перейти к последнему сообщению

В этой теме нет новых непрочитанных сообщений. Скачать торрент Магнет ссылка Проверено Дикая Лига [2019, Приключения, боевик, WEB-DLRip | iTunes] За каждые 100 байт. аплоада (сидирования) этого торрента начисляется бонус: 1.000

в форуме Российское кино, Размер: 1.46 ГБ, Здоровье: 100%

admin

0
663|84

131
6381

18 ноя 2019, 18:30

admin Перейти к последнему сообщению

В этой теме нет новых непрочитанных сообщений. Скачать торрент Магнет ссылка Проверено Остров обреченных (1-10 серии из 10) [2019, Детектив, приключения, WEB-DL (1080p)] За каждые 100 байт. аплоада (сидирования) этого торрента начисляется бонус: 1.000

в форуме Законченные русские сериалы, Размер: 20.96 ГБ, Здоровье: 0%

admin

0
0|0

96
0

30 ноя 2019, 13:24

admin Перейти к последнему сообщению

В этой теме нет новых непрочитанных сообщений. Скачать торрент Магнет ссылка Проверено Адриан Конан Дойл, Джон Диксон Карр - Неизвестные приключения Шерлока Холмса (2019) MP3

в форуме Детективы и криминал, Размер: 438.27 МБ, Здоровье: 100%

admin

0
33|0

41
592

19 ноя 2019, 21:15

admin Перейти к последнему сообщению

В этой теме нет новых непрочитанных сообщений. Скачать торрент Магнет ссылка Проверено Рэмбо: Последняя кровь | Rambo: Last Blood (Адриан Грюнберг) [2019 г., боевик, триллер, приключения, WEBRip] За каждые 100 байт. аплоада (сидирования) этого торрента начисляется бонус: 1.000

в форуме Фильмы 2015-2019 г., Размер: 1.48 ГБ, Здоровье: 100%

admin

0
8|2

155
11

25 ноя 2019, 18:31

admin Перейти к последнему сообщению



Кто сейчас на конференции

Сейчас этот форум просматривают: нет зарегистрированных пользователей и гости: 1


Вы не можете начинать темы
Вы не можете отвечать на сообщения
Вы не можете редактировать свои сообщения
Вы не можете удалять свои сообщения
Вы не можете добавлять вложения

Найти:
Перейти:  
cron
Ресурс не предоставляет электронные версии произведений, а занимается лишь коллекционированием и каталогизацией ссылок, присылаемых и публикуемых на форуме нашими читателями. Если вы являетесь правообладателем какого-либо представленного материала и не желаете чтобы ссылка на него находилась в нашем каталоге, свяжитесь с нами и мы незамедлительно удалим её. Файлы для обмена на трекере предоставлены пользователями сайта, и администрация не несёт ответственности за их содержание. Просьба не заливать файлы, защищенные авторскими правами, а также файлы нелегального содержания!
Информационное сообщение...
Доброго времени суток! Если вы попали на наш портал, советуем задержаться у нас и посмотрель материалы.А лучше всего оставайтесь и делитесь своими файлами со всем народом.Кроме этого вы сможете просмотреть нужный фильм в оригинальном качестве или прослушать музыку.Регистрируйтесь и воспользуйтесь всеми опциями трекера.
ppkBB3cker v.2 © 2008-2014 @ PPK