Начать новую тему Ответить на тему  [ 1 сообщение ] 
Статистика раздачи
Размер|   2.8 ГБ    |   3 009 983 061 байт   
Раздают|   1167   Качают|   44      
Последний личер: | 16 дней 23 часа 47 минут 54 секунды назад  | (Google it!)
Автор Сообщение
Непрочитанное сообщение Добавлено: 19 дек 2019, 21:08 
Ответить с цитатой
Не в сети
Администратор
Администратор
Аватара пользователя


Открыть статистику

Раздал: 318.57 ГБ
Скачал: 6.65 ГБ
Ратио: 1043.927


Зарегистрирован: 01 июл 2016, 17:16
Сообщения: 900
Баллы репутации: 10
За самый скачиваемый релиз
Медали: 5
за участие (1) Создание сайта (1) За 100 релизов (1) за 200 релизов (1)
За 500 релизов (1)
Верность (2019) WEBRip 1080p»Скачать торрент

Информация о фильме
Оригинальное название: Верность
Год выпуска: 2019
Жанр: Драма
Режиссер: Нигина Сайфуллаева
В ролях: Александр Паль, Евгения Громова, Алексей Агранович, Марина Васильева (II), Анна Котова-Дерябина, Павел Ворожцов, Елизавета Лотова, Анастасия Денисова, Кирилл Каганович

О фильме: Лена — талантливый акушер-гинеколог, её муж Сережа — артист провинциального драмтеатра. Близость и нежность у них есть, секса — нет. Лена подозревает, что Сережа завёл роман на стороне, но она мучается молча и не выдаёт свою ревность. Вместо того чтобы выяснить отношения с мужем, Лена сама начинает изменять ему со случайными мужчинами. Она, конечно, не думала, что её параллельная жизнь окажется не менее подлинной, чем основная. И не менее реальной. И настолько опасной.



Выпущено: Россия, PREMIER Studios, Droog Drooga Films при поддержке Министерства культуры РФ
Продолжительность: 01:18:24
Язык: Русский
Субтитры: Нет

Файл
Качество: WEBRip 1080p
Видео: AVC/H.264, 1920x1080, ~5000 Kbps
Аудио: AC3, 2 ch, 192 Kbps
Версия 18+ [сцены сексуального характера].
General
Format : Matroska
Format version : Version 4
File size : 2.80 GiB
Duration : 1 h 18 min
Overall bit rate mode : Constant
Overall bit rate : 5 119 kb/s
Movie name : Vernost.2019.WEB-DL.(1080p).Getty
Encoded date : UTC 2019-12-15 23:08:53
Writing application : mkvmerge v7.8.0 ('River Man') 32bit built on Mar 27 2015 16:18:02
Writing library : libebml v1.3.1 + libmatroska v1.4.2
Video
ID : 1
Format : AVC
Format/Info : Advanced Video Codec
Format profile : Baseline@L4
Format settings : 4 Ref Frames
Format settings, CABAC : No
Format settings, Reference : 4 frames
Codec ID : V_MPEG4/ISO/AVC
Duration : 1 h 18 min
Bit rate mode : Constant
Bit rate : 5 000 kb/s
Width : 1 920 pixels
Height : 1 080 pixels
Display aspect ratio : 16:9
Frame rate mode : Constant
Frame rate : 25.000 FPS
Standard : PAL
Color space : YUV
Chroma subsampling : 4:2:0
Bit depth : 8 bits
Scan type : Progressive
Bits/(Pixel*Frame) : 0.096
Stream size : 2.70 GiB (96%)
Default : Yes
Forced : No
Color range : Limited
Color primaries : BT.709
Transfer characteristics : BT.709
Matrix coefficients : BT.709
Audio
ID : 2
Format : AC-3
Format/Info : Audio Coding 3
Commercial name : Dolby Digital
Codec ID : A_AC3
Duration : 1 h 18 min
Bit rate mode : Constant
Bit rate : 192 kb/s
Channel(s) : 2 channels
Channel layout : L R
Sampling rate : 48.0 kHz
Frame rate : 31.250 FPS (1536 SPF)
Compression mode : Lossy
Stream size : 108 MiB (4%)
Service kind : Complete Main
Default : Yes
Forced : No



_________________



 Профиль
 
 
Понравилась тема расскажи друзьям!


  • Торрент

Верность (2019) WEBRip 1080p.torrent 
Зарегистрирован:  19 дек 2019, 21:08  HASH|81f4b3a75373a91338958c74af8e3f403397b6f8| (Google it!)
Статус:  Проверено | admin
Торрент:  Размер: 2.8 ГБ | Скачан: 51557 раз | Торрент файл: 14.45 КБ  
Здоровье:   100%
Поделиться:
 
Как качать?
Как качать?
X
Скачайте торрент и откройте его в своем клиенте
uTorrent

скачать программу,
дождитесь окончания загрузки.
* Как смотреть?
Как смотреть?
X

Для работы Magic Player
Вам необходимо установить
Ace Stream P2P Multimedia Plug-in

Установить

Для работы Magic Player
Вам необходимо включить
Ace Stream P2P Multimedia Plug-in

Инструкция
Показать сообщения за:  Поле сортировки  
Начать новую тему Ответить на тему  [ 1 сообщение ] 

   Похожие торренты   Автор   Ответы   Просмотры   Последнее сообщение 
Непрочитанные сообщения Скачать торрент Магнет ссылка Проверено Перейти к первому непрочитанному сообщениюКвартирный вопрос / 1-125 выпуски [2017-2019, Тв-Шоу, WEBRip 1080p] За каждые 100 байт. аплоада (сидирования) этого торрента начисляется бонус: 1.000

в форуме Хозяйсто и быт, Размер: 137.07 ГБ, Здоровье: 0%

admin

0
0|0

140
0

24 ноя 2019, 05:57

admin Перейти к последнему сообщению

Непрочитанные сообщения Скачать торрент Магнет ссылка Проверено Перейти к первому непрочитанному сообщениюКвартирный вопрос / 1-128 выпуски [2017-2019, ТВ-Шоу, WEBRip 1080p] За каждые 100 байт. аплоада (сидирования) этого торрента начисляется бонус: 1.000

в форуме Тв шоу, Размер: 140.72 ГБ, Здоровье: 0%

admin

0
0|0

189
0

21 дек 2019, 18:13

admin Перейти к последнему сообщению

Непрочитанные сообщения Скачать торрент Магнет ссылка Проверено Перейти к первому непрочитанному сообщениюДорога зверя / Kemono Michi: Rise Up [S01] (2019) WEBRip 1080p | StudioBand За каждые 100 байт. аплоада (сидирования) этого торрента начисляется бонус: 1.000

в форуме Аниме, Размер: 20.02 ГБ, Здоровье: 100%

admin

0
56|26

160
414

22 дек 2019, 09:28

admin Перейти к последнему сообщению

Непрочитанные сообщения Скачать торрент Магнет ссылка Проверено Перейти к первому непрочитанному сообщениюСборник клипов - Deutsche Music Hits. Часть 11. [200 Music videos] (2019) WEBRip 1080p За каждые 100 байт. аплоада (сидирования) этого торрента начисляется бонус: 1.000

в форуме Популярная музыка, Размер: 13.9 ГБ, Здоровье: 100%

admin

0
39|39

62
226

16 янв 2020, 10:14

admin Перейти к последнему сообщению

Непрочитанные сообщения Скачать торрент Магнет ссылка Проверено Перейти к первому непрочитанному сообщениюТекст (2019) WEBRip 720p За каждые 100 байт. аплоада (сидирования) этого торрента начисляется бонус: 1.000

в форуме Российское кино, Размер: 1.21 ГБ, Здоровье: 100%

admin

0
6007|298

481
114434

01 дек 2019, 12:22

admin Перейти к последнему сообщению



Кто сейчас на конференции

Сейчас этот форум просматривают: нет зарегистрированных пользователей и гости: 0


Вы не можете начинать темы
Вы не можете отвечать на сообщения
Вы не можете редактировать свои сообщения
Вы не можете удалять свои сообщения
Вы не можете добавлять вложения

Найти:
Перейти:  
Ресурс не предоставляет электронные версии произведений, а занимается лишь коллекционированием и каталогизацией ссылок, присылаемых и публикуемых на форуме нашими читателями. Если вы являетесь правообладателем какого-либо представленного материала и не желаете чтобы ссылка на него находилась в нашем каталоге, свяжитесь с нами и мы незамедлительно удалим её. Файлы для обмена на трекере предоставлены пользователями сайта, и администрация не несёт ответственности за их содержание. Просьба не заливать файлы, защищенные авторскими правами, а также файлы нелегального содержания!
Информационное сообщение...
Доброго времени суток! Если вы попали на наш портал, советуем задержаться у нас и посмотрель материалы.А лучше всего оставайтесь и делитесь своими файлами со всем народом.Кроме этого вы сможете просмотреть нужный фильм в оригинальном качестве или прослушать музыку.Регистрируйтесь и воспользуйтесь всеми опциями трекера.
ppkBB3cker v.2 © 2008-2014 @ PPK