Начать новую тему Ответить на тему  [ 1 сообщение ] 
Статистика раздачи
Размер|   2.03 ГБ    |   2 182 699 811 байт   
Раздают|   13   Качают|   3      
Последний личер: | 16 дней 6 часов 25 минут 12 секунд назад  | (Google it!)
Автор Сообщение
Непрочитанное сообщение Добавлено: 19 янв 2020, 05:53 
Ответить с цитатой
Не в сети
Администратор
Администратор
Аватара пользователя


Открыть статистику

Раздал: 3.4 ТБ
Скачал: 6.65 ГБ
Ратио: 1522.477


Зарегистрирован: 01 июл 2016, 17:16
Сообщения: 1603
Баллы репутации: 10
За самый скачиваемый релиз
Медали: 7
за участие (1) Создание сайта (1) За 100 релизов (1) за 200 релизов (1)
За 500 релизов (1) За 1000 релизов (1) Кандидат на повышение (1)
Царь зверей / The Donkey King [2018, Мультфильм, комедия, семейный, WEB-DLRip-AVC | iTunes]»Скачать торрент

Информация о фильме
Название: Царь зверей
Оригинальное название: The Donkey King
Год выхода: 2018
Жанр: Мультфильм, комедия, семейный
Режиссер: Азиз Джиндани
В ролях: Афзал Кхан, Хина Дильпазир, Гулам Мохиуддин, Адиль Хашми, Файзал Куреши, Джавед Шейх, Шафат Али, Васай Чодри, Шаббир Ян, Ахсан Рахим

Слоган: «За осла ответишь!»

О фильме: «Если ты родился ослом, то не обязательно всю жизнь жить как осел. Мечтай, и твои мечты осуществятся». Получив такое напутствие от отца, осел по имени Мангу с оптимизмом смотрит на жизнь. И однажды ему действительно улыбается удача. В стране грядут выборы нового правителя. По невероятному стечению обстоятельств, претендентов на трон всего двое: он и избалованный принц, которого народ терпеть не может. Казалось бы, дело в шляпе, а корона на голове у ослика! Но сможет ли простой осел из бедной семьи стать царем зверей? Ведь речи произносить его никто не учил, а всё, чем он управлял — это утюг и доска для стирки белья!



Страна: Пакистан / Talisman Animations
Продолжительность: 01:41:49
Перевод: Профессиональный (полное дублирование) [ iTunes]

Файл
Качество: WEB-DLRip-AVC
Формат: MKV
Видео: MPEG-4 AVC/H.264, 2500 Кбит/сек, 1024x432
Аудио: AC3, 6 ch, 384 Кбит/сек
Субтитры: нет
Дополнительно: Сохранены оригинальные главы (чаптеры)

Медиа инфо: Общее
Уникальный идентификатор : 51669984532366664203840814778045079333 (0x26DF46EC55D885C349B8564B70929F25)
Полное имя : F:\РЕЛИЗЫ\03. МУЛЬТФИЛЬМЫ\Царь зверей The Donkey King 2018\THE_DONKEY_KING (2018) WEB-DL 720p_encoded.mkv
Формат : Matroska
Версия формата : Version 4
Размер файла : 2,03 Гбайт
Продолжительность : 1 ч. 41 м.
Общий поток : 2858 Кбит/сек
Программа кодирования : XviD4PSP 7.0.324 DAILY
Библиотека кодирования : Lavf57.41.100
Авторское право : «®»
Обложка : Yes
Attachments : cover.jpg

Видео
Идентификатор : 1
Формат : AVC
Формат/Информация : Advanced Video Codec
Профиль формата : High@L4.1
Настройки формата : 9 Ref Frames
Параметр CABAC формата : Нет
Параметр RefFrames формата : 9 кадров
Идентификатор кодека : V_MPEG4/ISO/AVC
Продолжительность : 1 ч. 41 м.
Битрейт : 2500 Кбит/сек
Ширина : 1024 пикселя
Высота : 432 пикселя
Соотношение сторон : 2,40:1
Соотношение сторон в оригинале : 2,40:1
Режим частоты кадров : Постоянный
Частота кадров : 24,000 кадра/сек
Цветовое пространство : YUV
Субдискретизация насыщенности : 4:2:0
Битовая глубина : 8 бит
Тип развёртки : Прогрессивная
Бит/(Пиксели*Кадры) : 0.235
Размер потока : 1,72 Гбайт (85%)
Заголовок : Pakistan (Talisman Animations)
Библиотека кодирования : x264 core 148 r2721M 72d53ab
Настройки программы : cabac=0 / ref=10 / deblock=1:-3:-3 / analyse=0x3:0x133 / me=umh / subme=11 / psy=1 / psy_rd=1.00:0.20 / mixed_ref=1 / me_range=32 / chroma_me=1 / trellis=2 / 8x8dct=1 / cqm=0 / deadzone=21,11 / fast_pskip=1 / chroma_qp_offset=-3 / threads=11 / lookahead_threads=1 / sliced_threads=0 / nr=0 / decimate=1 / interlaced=0 / bluray_compat=0 / constrained_intra=0 / bframes=10 / b_pyramid=1 / b_adapt=1 / b_bias=10 / direct=1 / weightb=1 / open_gop=0 / weightp=1 / keyint=240 / keyint_min=24 / scenecut=40 / intra_refresh=0 / rc_lookahead=40 / rc=abr / mbtree=1 / bitrate=2500 / ratetol=1.0 / qcomp=0.60 / qpmin=0 / qpmax=69 / qpstep=4 / ip_ratio=1.40 / aq=1:1.00
Язык : English
Default : Да
Forced : Нет
Цветовой диапазон : Limited
Основные цвета : BT.709
Характеристики трансфера : BT.709
Коэффициенты матрицы : BT.709

Аудио
Идентификатор : 2
Формат : AC-3
Формат/Информация : Audio Coding 3
Коммерческое название : Dolby Digital
Идентификатор кодека : A_AC3
Продолжительность : 1 ч. 41 м.
Вид битрейта : Постоянный
Битрейт : 384 Кбит/сек
Каналы : 6 каналов
ChannelLayout : L R C LFE Ls Rs
Частота : 48,0 КГц
Частота кадров : 31,250 кадров/сек (1536 SPF)
Битовая глубина : 32 бит
Метод сжатия : С потерями
Размер потока : 280 Мбайт (13%)
Заголовок : Dub (iTunes)
Язык : Russian
ServiceKind/String : Complete Main
Default : Да
Forced : Нет

Меню
00:00:00.000 : :Глава 1
00:09:43.541 : :Глава 2
00:19:31.874 : :Глава 3
00:27:44.624 : :Глава 4
00:37:06.082 : :Глава 5
00:46:58.332 : :Глава 6
00:57:11.540 : :Глава 7
01:07:08.373 : :Глава 8
01:16:46.581 : :Глава 9
01:25:19.331 : :Глава 10
01:33:24.039 : :Глава 11


Релиз подготовлен:
Релиз группа:

_________________



 Профиль
 
 
Понравилась тема расскажи друзьям!


  • Торрент

Царь зверей / The Donkey King [2018, Мультфильм, комедия, семейный, WEB-DLRip-AVC | iTunes].torrent 
Зарегистрирован:  19 янв 2020, 05:53  HASH|4b62033a1a54a76907c4c71c1f4abd11e816bb0c| (Google it!)
Статус:  Проверено | хакер
Торрент:  Размер: 2.03 ГБ | Скачан: 929 раз | Торрент файл: 11.37 КБ  
Здоровье:   100%
Поделиться:
 
Как качать?
Как качать?
X
Скачайте торрент и откройте его в своем клиенте
uTorrent

скачать программу,
дождитесь окончания загрузки.
* Как смотреть?
Как смотреть?
X

Для работы Magic Player
Вам необходимо установить
Ace Stream P2P Multimedia Plug-in

Установить

Для работы Magic Player
Вам необходимо включить
Ace Stream P2P Multimedia Plug-in

Инструкция
Показать сообщения за:  Поле сортировки  
Начать новую тему Ответить на тему  [ 1 сообщение ] 

   Похожие торренты   Автор   Ответы   Просмотры   Последнее сообщение 
Непрочитанные сообщения Скачать торрент Магнет ссылка Проверено Перейти к первому непрочитанному сообщениюНорм и несокрушимые: семейный отпуск / Norm of the North: Family Vacation [2020, мультфильм, комедия, приключения, семейный, WEB-DLRip За каждые 100 байт. аплоада (сидирования) этого торрента начисляется бонус: 1.000

в форуме Зарубежные мульт фильмы, Размер: 1.37 ГБ, Здоровье: 100%

хакер

0
63|7

207
2717

09 мар 2020, 11:03

хакер Перейти к последнему сообщению

Непрочитанные сообщения Скачать торрент Магнет ссылка Проверено Перейти к первому непрочитанному сообщениюНорм и несокрушимые: семейный отпуск / Norm of the North: Family Vacation [2020, мультфильм, комедия, приключения, семейный, WEB-DLRip 720p За каждые 100 байт. аплоада (сидирования) этого торрента начисляется бонус: 1.000

в форуме Зарубежные мульт фильмы, Размер: 3.87 ГБ, Здоровье: 100%

хакер

0
14|4

273
522

09 мар 2020, 11:06

хакер Перейти к последнему сообщению

Непрочитанные сообщения Скачать торрент Магнет ссылка Проверено Перейти к первому непрочитанному сообщениюКамуфляж и шпионаж / Spies in Disguise [2019, Мультфильм, анимационный, фантастика, боевик, комедия, приключения, семейный, BDRip | iTunes] За каждые 100 байт. аплоада (сидирования) этого торрента начисляется бонус: 1.000

в форуме Зарубежные мульт фильмы, Размер: 1.42 ГБ, Здоровье: 100%

хакер

0
4284|252

237
113115

13 мар 2020, 18:34

хакер Перейти к последнему сообщению

Непрочитанные сообщения Скачать торрент Магнет ссылка Проверено Перейти к первому непрочитанному сообщениюПланета зверей / Dong wu shi jie (2018) WEB-DLRip-AVC | HDrezka Studio За каждые 100 байт. аплоада (сидирования) этого торрента начисляется бонус: 1.000

в форуме Фильмы WEB-DLRip / WEB-DLRip 720 / WEB-DLRip 1080, Размер: 744.51 МБ, Здоровье: 100%

хакер

0
15|0

1883
140

05 дек 2019, 20:12

хакер Перейти к последнему сообщению

Непрочитанные сообщения Скачать торрент Магнет ссылка Проверено Перейти к первому непрочитанному сообщениюПисьмо королю (1 сезон: 1-6 серии из 6) / The Letter for the King [2020, Фэнтези, боевик, приключения, семейный, WEB-DLRip | Профессиональный (полное дублирование) | Невафильм] За каждые 100 байт. аплоада (сидирования) этого торрента начисляется бонус: 1.000

в форуме Законченные зарубежные сериалы, Размер: 5.1 ГБ, Здоровье: 100%

хакер

0
533|124

235
13271

20 мар 2020, 22:24

хакер Перейти к последнему сообщению



Кто сейчас на конференции

Сейчас этот форум просматривают: нет зарегистрированных пользователей и гости: 1


Вы не можете начинать темы
Вы не можете отвечать на сообщения
Вы не можете редактировать свои сообщения
Вы не можете удалять свои сообщения
Вы не можете добавлять вложения

Найти:
Перейти:  
Ресурс не предоставляет электронные версии произведений, а занимается лишь коллекционированием и каталогизацией ссылок, присылаемых и публикуемых на форуме нашими читателями. Если вы являетесь правообладателем какого-либо представленного материала и не желаете чтобы ссылка на него находилась в нашем каталоге, свяжитесь с нами и мы незамедлительно удалим её. Файлы для обмена на трекере предоставлены пользователями сайта, и администрация не несёт ответственности за их содержание. Просьба не заливать файлы, защищенные авторскими правами, а также файлы нелегального содержания!
Информационное сообщение...
Доброго времени суток! Если вы попали на наш портал, советуем задержаться у нас и посмотрель материалы.А лучше всего оставайтесь и делитесь своими файлами со всем народом.Кроме этого вы сможете просмотреть нужный фильм в оригинальном качестве или прослушать музыку.Регистрируйтесь и воспользуйтесь всеми опциями трекера.