Начать новую тему Ответить на тему  [ 1 сообщение ] 
Статистика раздачи
Размер|   1.09 ГБ    |   1 168 660 480 байт   
Раздают|   257   Качают|   12      
Последний личер: | 14 дней 6 часов 28 минут 51 секунду назад  | (Google it!)
Автор Сообщение
Непрочитанное сообщение Добавлено: 15 фев 2020, 07:59 
Ответить с цитатой
Не в сети
Администратор
Администратор
Аватара пользователя


Открыть статистику

Раздал: 3.4 ТБ
Скачал: 6.65 ГБ
Ратио: 1522.477


Зарегистрирован: 01 июл 2016, 17:16
Сообщения: 1601
Баллы репутации: 10
За самый скачиваемый релиз
Медали: 7
за участие (1) Создание сайта (1) За 100 релизов (1) за 200 релизов (1)
За 500 релизов (1) За 1000 релизов (1) Кандидат на повышение (1)
Красавица и воры [01-02 из 02] (2019) WEB-DLRip от Files-x»Скачать торрент

Информация о фильме
Название: Красавица и воры
Год выпуска: 2019
Жанр: Детектив, мелодрама
Режиссер: Андрей Силкин
В ролях: Светлана Антонова, Максим Щёголев, Анастасия Панина, Анатолий Лобоцкий, Максим Коновалов, Михаил Дорожкин, Ирина Баринова, Вахтанг Беридзе, Елена Муравьёва, Александр Красовский, Андрей Наконечный, Иван Гришанов, Юлия Юшина, Артур Бичахчян

О фильме: Следователь прокуратуры Валерия отметила тридцатипятилетие и готовится получить очередное звание. Однако вместо повышения ее временно отстраняют от работы, поскольку пропало пустяковое дело, которое она вела. Валерия подавлена, и ее лучшая подруга Ася решает отправить ее в косметический салон. Там следователь узнает о таинственном обольстителе, похищающем не только драгоценности доверчивых дам, но и важные документы их мужчин. Она решает изловить преступника и с победой вернуться на службу.



Выпущено: Россия
Студия: NRC Film
Продолжительность: 2 x ~ 00:42:58
Перевод: Не требуется

Файл
Качество: WEB-DLRip
Видео: XviD, ~ 1600 Кбит/с, 720x400
Аудио: AC3, 2 ch, 192 Кбит/с
Медиа инфо: General
Complete name : H:fiiles xКрасавица и воры .2020.WEB-DLRip.Files-x�2. Красавица и воры .2020.WEB-DLRip.Files-x.avi
Format : AVI
Format/Info : Audio Video Interleave
File size : 561 MiB
Duration : 43mn 31s
Overall bit rate : 1 801 Kbps
Writing application : VirtualDubMod 1.5.10.3 | www.virtualdub-fr.org || (build 2550/release)
Writing library : VirtualDubMod build 2550/release

Video
ID : 0
Format : MPEG-4 Visual
Format profile : Advanced Simple@L5
Format settings, BVOP : 1
Format settings, QPel : No
Format settings, GMC : No warppoints
Format settings, Matrix : Custom
Codec ID : XVID
Codec ID/Hint : XviD
Duration : 43mn 31s
Bit rate : 1 600 Kbps
Width : 720 pixels
Height : 400 pixels
Display aspect ratio : 16:9
Frame rate : 25.000 fps
Color space : YUV
Chroma subsampling : 4:2:0
Bit depth : 8 bits
Scan type : Progressive
Compression mode : Lossy
Bits/(Pixel*Frame) : 0.222
Stream size : 498 MiB (89%)
Writing library : XviD 73

Audio
ID : 1
Format : AC-3
Format/Info : Audio Coding 3
Mode extension : CM (complete main)
Codec ID : 2000
Duration : 43mn 31s
Bit rate mode : Constant
Bit rate : 192 Kbps
Channel(s) : 2 channels
Channel positions : Front: L R
Sampling rate : 48.0 KHz
Bit depth : 16 bits
Compression mode : Lossy
Stream size : 59.8 MiB (11%)
Alignment : Split accross interleaves
Interleave, duration : 40 ms (1.00 video frame)
Interleave, preload duration : 500 ms


Релиз подготовлен:
Релиз группа:

_________________



 Профиль
 
 
Понравилась тема расскажи друзьям!


  • Торрент

Красавица и воры [01-02 из 02] (2019) WEB-DLRip от Files-x.torrent 
Зарегистрирован:  15 фев 2020, 07:59  HASH|fa8360e84943fba4d5ad7f511ad1142f69a3c003| (Google it!)
Статус:  Проверено | хакер
Торрент:  Размер: 1.09 ГБ | Скачан: 13451 раз | Торрент файл: 12.05 КБ  
Здоровье:   100%
Поделиться:
 
Как качать?
Как качать?
X
Скачайте торрент и откройте его в своем клиенте
uTorrent

скачать программу,
дождитесь окончания загрузки.
* Как смотреть?
Как смотреть?
X

Для работы Magic Player
Вам необходимо установить
Ace Stream P2P Multimedia Plug-in

Установить

Для работы Magic Player
Вам необходимо включить
Ace Stream P2P Multimedia Plug-in

Инструкция
Показать сообщения за:  Поле сортировки  
Начать новую тему Ответить на тему  [ 1 сообщение ] 

   Похожие торренты   Автор   Ответы   Просмотры   Последнее сообщение 
Непрочитанные сообщения Скачать торрент Магнет ссылка Проверено Перейти к первому непрочитанному сообщениюПлан Б [01-06] (2019) WEB-DLRip от Files-x За каждые 100 байт. аплоада (сидирования) этого торрента начисляется бонус: 1.000

в форуме Реалити шоу, Размер: 5.49 ГБ, Здоровье: 33%

хакер

0
2|6

703
2

19 ноя 2019, 20:42

хакер Перейти к последнему сообщению

Непрочитанные сообщения Скачать торрент Магнет ссылка Проверено Перейти к первому непрочитанному сообщениюАдвокат Ардашевъ. Маскарадъ со смертью / Сезон: 1 / Серии: 1-4 из 4 (Сергей Мезенцев) [2019, ретро-детектив, экранизация, WEB-DLRip-AVC] От [R.G.Files-x] За каждые 100 байт. аплоада (сидирования) этого торрента начисляется бонус: 1.000

в форуме Законченные русские сериалы, Размер: 2.24 ГБ, Здоровье: 100%

хакер

0
39|9

203
1870

15 фев 2020, 09:41

хакер Перейти к последнему сообщению

Непрочитанные сообщения Скачать торрент Магнет ссылка Проверено Перейти к первому непрочитанному сообщениюТайны следствия [19х01-24 из 24] (2019) WEBRip от Files-x За каждые 100 байт. аплоада (сидирования) этого торрента начисляется бонус: 1.000

в форуме Законченные русские сериалы, Размер: 15.52 ГБ, Здоровье: 100%

хакер

0
23|9

301
1101

26 дек 2019, 18:12

хакер Перейти к последнему сообщению

Непрочитанные сообщения Скачать торрент Магнет ссылка R обновляемая Перейти к первому непрочитанному сообщениюТайны следствия [19х01-18 из 24] (2019) WEBRip-AVC от Files-x За каждые 100 байт. аплоада (сидирования) этого торрента начисляется бонус: 1.000

в форуме Русские сериалы, Размер: 11.63 ГБ, Здоровье: ???%

хакер

0
0|1

310
0

24 дек 2019, 21:31

хакер Перейти к последнему сообщению

Непрочитанные сообщения Скачать торрент Магнет ссылка Проверено Перейти к первому непрочитанному сообщениюУсловный мент / Охта [01-24 из 24] (2019) WEBRip от Files-x За каждые 100 байт. аплоада (сидирования) этого торрента начисляется бонус: 1.000

в форуме Законченные русские сериалы, Размер: 12.42 ГБ, Здоровье: 100%

хакер

0
10|5

407
378

19 ноя 2019, 20:35

хакер Перейти к последнему сообщению



Кто сейчас на конференции

Сейчас этот форум просматривают: нет зарегистрированных пользователей и гости: 3


Вы не можете начинать темы
Вы не можете отвечать на сообщения
Вы не можете редактировать свои сообщения
Вы не можете удалять свои сообщения
Вы не можете добавлять вложения

Найти:
Перейти:  
cron
Ресурс не предоставляет электронные версии произведений, а занимается лишь коллекционированием и каталогизацией ссылок, присылаемых и публикуемых на форуме нашими читателями. Если вы являетесь правообладателем какого-либо представленного материала и не желаете чтобы ссылка на него находилась в нашем каталоге, свяжитесь с нами и мы незамедлительно удалим её. Файлы для обмена на трекере предоставлены пользователями сайта, и администрация не несёт ответственности за их содержание. Просьба не заливать файлы, защищенные авторскими правами, а также файлы нелегального содержания!
Информационное сообщение...
Доброго времени суток! Если вы попали на наш портал, советуем задержаться у нас и посмотрель материалы.А лучше всего оставайтесь и делитесь своими файлами со всем народом.Кроме этого вы сможете просмотреть нужный фильм в оригинальном качестве или прослушать музыку.Регистрируйтесь и воспользуйтесь всеми опциями трекера.