Начать новую тему Ответить на тему  [ 1 сообщение ] 
Статистика раздачи
Размер|   1.9 ГБ    |   2 035 570 893 байт   
Раздают|   102   Качают|   6      
Последний личер: | 1 месяц 3 дня 12 часов 17 минут 46 секунд назад  | (Google it!)
Автор Сообщение
Непрочитанное сообщение Добавлено: 22 фев 2020, 00:09 
Ответить с цитатой
Не в сети
Администратор
Администратор
Аватара пользователя


Открыть статистику

Раздал: 3.4 ТБ
Скачал: 6.65 ГБ
Ратио: 1522.477


Зарегистрирован: 01 июл 2016, 17:16
Сообщения: 1601
Баллы репутации: 10
За самый скачиваемый релиз
Медали: 7
за участие (1) Создание сайта (1) За 100 релизов (1) за 200 релизов (1)
За 500 релизов (1) За 1000 релизов (1) Кандидат на повышение (1)
Вальгалла: Рагнарёк / Valhalla (Фенар Ахмад) [2019, Фэнтези, триллер, приключения, WEB-DLRip] [HEVC] DUB [iTunes]»Скачать торрент

Год выхода: 2019
Страна: Дания, Норвегия, Швеция, Исландия
Жанр: Фэнтези, триллер, приключения
Продолжительность: 01:45:02
Перевод Профессиональный (дублированный) [iTunes]
Субтитры: Отсутствуют
Режиссер: Фенар Ахмад
В ролях: Роланд Мёллер, Дульфи Аль-Джабури, Сесилия Лоффредо, Саксо Мольтке-Лет, Асбьёрн Крог Ниссен, Стине Фишер Кристенсен, Саломе Гуннарсдоттир, Якоб Ульрик Ломанн, Патриция Шуманн, Андреас Йессен

О фильме: Близится Рагнарек, и великие боги Асгарда собирают последние силы перед битвой. Двое смертных из Мидгарда вместе с Локи и Тором прибывают в небесный чертог накануне сражения. Вот-вот пробудится чудовищный волк Фенрир и древние исполины из Ётунхейма осадят стены Вальгаллы.
Мир обречен. Но можно ли изменить предначертанное?

Качество: WEB-DLRip-HEVC
Формат: MKV
Видео кодек: H.265
Аудио кодек: AC3
Видео: HEVC, 1024x428 (2.40:1), 24.000 fps, 2 006 kb/s
Аудио 1: AC3, 48.0 kHz, 6 ch, 384 kb/s | DUB (RUS)
Аудио 2: AC3, 48.0 kHz, 2 ch, 192 kb/s | DUB (UKR)

Медиа инфо: General
Unique ID : 179972320564658534367723287037132231331 (0x8765687B72201B23A0F48FF4B30552A3)
Complete name : Valhalla.(2019).WEB-DLRip.HEVC.mkv
Format : Matroska
Format version : Version 4
File size : 1.90 GiB
Duration : 1 h 45 min
Overall bit rate : 2 584 kb/s
Encoded date : UTC 2020-02-21 13:09:07
Writing application : mkvmerge v8.3.0 ('Over the Horizon') 64bit
Writing library : libebml v1.3.1 + libmatroska v1.4.2

Video
ID : 1
Format : HEVC
Format/Info : High Efficiency Video Coding
Format profile : Main 10@L4.1@High
Codec ID : V_MPEGH/ISO/HEVC
Duration : 1 h 45 min
Bit rate : 2 006 kb/s
Width : 1 024 pixels
Height : 428 pixels
Display aspect ratio : 2.40:1
Frame rate mode : Constant
Frame rate : 24.000 FPS
Color space : YUV
Chroma subsampling : 4:2:0
Bit depth : 10 bits
Bits/(Pixel*Frame) : 0.191
Stream size : 1.47 GiB (78%)
Default : Yes
Forced : No
Color range : Limited
Color primaries : BT.709
Transfer characteristics : BT.709
Matrix coefficients : BT.709

Audio #1
ID : 2
Format : AC-3
Format/Info : Audio Coding 3
Commercial name : Dolby Digital
Codec ID : A_AC3
Duration : 1 h 45 min
Bit rate mode : Constant
Bit rate : 384 kb/s
Channel(s) : 6 channels
Channel layout : L R C LFE Ls Rs
Sampling rate : 48.0 kHz
Frame rate : 31.250 FPS (1536 SPF)
Bit depth : 16 bits
Compression mode : Lossy
Stream size : 289 MiB (15%)
Language : Russian
Default : Yes
Forced : No

Audio #2
ID : 3
Format : AC-3
Format/Info : Audio Coding 3
Commercial name : Dolby Digital
Codec ID : A_AC3
Duration : 1 h 45 min
Bit rate mode : Constant
Bit rate : 192 kb/s
Channel(s) : 2 channels
Channel layout : L R
Sampling rate : 48.0 kHz
Frame rate : 31.250 FPS (1536 SPF)
Bit depth : 16 bits
Compression mode : Lossy
Stream size : 144 MiB (7%)
Language : Ukrainian
Default : No
Forced : No

Menu
00:00:00.000 : :Глава 1
00:02:57.625 : :Глава 2
00:12:56.041 : :Глава 3
00:22:19.791 : :Глава 4
00:27:54.541 : :Глава 5
00:34:27.791 : :Глава 6
00:39:15.624 : :Глава 7
00:43:57.707 : :Глава 8
00:50:24.998 : :Глава 9
00:56:01.039 : :Глава 10
01:01:37.455 : :Глава 11
01:06:04.996 : :Глава 12
01:15:25.621 : :Глава 13
01:22:15.746 : :Глава 14
01:29:59.371 : :Глава 15
01:36:47.787 : :Глава 16


Смотреть трейлер к материалу

Релиз подготовлен:
Релиз группа:

_________________



 Профиль
 
 
Понравилась тема расскажи друзьям!


  • Торрент

Вальгалла: Рагнарёк / Valhalla (Фенар Ахмад) [2019, Фэнтези, триллер, приключения, WEB-DLRip] [HEVC] DUB [iTunes].torrent 
Зарегистрирован:  22 фев 2020, 00:09  HASH|6349e958bbe1c0c651bb2a7bac8dc9a05405f057| (Google it!)
Статус:  Проверено | хакер
Торрент:  Размер: 1.9 ГБ | Скачан: 2137 раз | Торрент файл: 76.33 КБ  
Здоровье:   100%
Поделиться:
 
Как качать?
Как качать?
X
Скачайте торрент и откройте его в своем клиенте
uTorrent

скачать программу,
дождитесь окончания загрузки.
* Как смотреть?
Как смотреть?
X

Для работы Magic Player
Вам необходимо установить
Ace Stream P2P Multimedia Plug-in

Установить

Для работы Magic Player
Вам необходимо включить
Ace Stream P2P Multimedia Plug-in

Инструкция
Показать сообщения за:  Поле сортировки  
Начать новую тему Ответить на тему  [ 1 сообщение ] 

   Похожие торренты   Автор   Ответы   Просмотры   Последнее сообщение 
Непрочитанные сообщения Скачать торрент Магнет ссылка Проверено Перейти к первому непрочитанному сообщениюВальгалла: Рагнарёк / Valhalla (2019) WEB-DLRip-AVC от grab777 | iTunes За каждые 100 байт. аплоада (сидирования) этого торрента начисляется бонус: 1.000

в форуме Фильмы WEB-DLRip / WEB-DLRip 720 / WEB-DLRip 1080, Размер: 1.73 ГБ, Здоровье: 100%

хакер

0
813|52

1291
7774

22 фев 2020, 00:23

хакер Перейти к последнему сообщению

Непрочитанные сообщения Скачать торрент Магнет ссылка Проверено Перейти к первому непрочитанному сообщениюКома (Никита Аргунов) [2020 г., боевик, фантастика, фэнтези, приключения, WEB-DLRip-AVC] | [iTunes] За каждые 100 байт. аплоада (сидирования) этого торрента начисляется бонус: 1.000

в форуме Фильмы WEB-DLRip / WEB-DLRip 720 / WEB-DLRip 1080, Размер: 2.04 ГБ, Здоровье: 100%

хакер

0
68|1

896
685

30 мар 2020, 18:57

хакер Перейти к последнему сообщению

Непрочитанные сообщения Скачать торрент Магнет ссылка Проверено Перейти к первому непрочитанному сообщениюЭбигейл (Александр Богуславский) [2019,приключения, фэнтези, семейный, BDRip] [iTunes] За каждые 100 байт. аплоада (сидирования) этого торрента начисляется бонус: 1.000

в форуме Фильмы HDRip / BDRIp / 720, 1080, Размер: 1.46 ГБ, Здоровье: 100%

хакер

0
155|2

452
18799

06 янв 2020, 04:38

хакер Перейти к последнему сообщению

Непрочитанные сообщения Скачать торрент Магнет ссылка Проверено Перейти к первому непрочитанному сообщениюПробуждающая совесть 2: Дар змеи / Skammerens datter II: Slangens gave [2019, Фэнтези, драма, приключения, Blu-Ray Remux 1080p | iTunes] За каждые 100 байт. аплоада (сидирования) этого торрента начисляется бонус: 1.000

в форуме Фильмы 2015-2020 г., Размер: 17.67 ГБ, Здоровье: 100%

хакер

0
27|6

241
557

08 мар 2020, 18:17

хакер Перейти к последнему сообщению

Непрочитанные сообщения Скачать торрент Магнет ссылка Проверено Перейти к первому непрочитанному сообщениюЗов предков / The Call of the Wild (Крис Сандерс) [ 2020, Драма, приключения, семейный,WEB-DLRip - HEVC 1080p] За каждые 100 байт. аплоада (сидирования) этого торрента начисляется бонус: 1.000

в форуме Фильмы WEB-DLRip / WEB-DLRip 720 / WEB-DLRip 1080, Размер: 2.43 ГБ, Здоровье: 47%

nikolai.baranov1955

0
8|17

63
12

Вчера, 14:54

nikolai.baranov1955 Перейти к последнему сообщению



Кто сейчас на конференции

Сейчас этот форум просматривают: нет зарегистрированных пользователей и гости: 4


Вы не можете начинать темы
Вы не можете отвечать на сообщения
Вы не можете редактировать свои сообщения
Вы не можете удалять свои сообщения
Вы не можете добавлять вложения

Найти:
Перейти:  
cron
Ресурс не предоставляет электронные версии произведений, а занимается лишь коллекционированием и каталогизацией ссылок, присылаемых и публикуемых на форуме нашими читателями. Если вы являетесь правообладателем какого-либо представленного материала и не желаете чтобы ссылка на него находилась в нашем каталоге, свяжитесь с нами и мы незамедлительно удалим её. Файлы для обмена на трекере предоставлены пользователями сайта, и администрация не несёт ответственности за их содержание. Просьба не заливать файлы, защищенные авторскими правами, а также файлы нелегального содержания!
Информационное сообщение...
Доброго времени суток! Если вы попали на наш портал, советуем задержаться у нас и посмотрель материалы.А лучше всего оставайтесь и делитесь своими файлами со всем народом.Кроме этого вы сможете просмотреть нужный фильм в оригинальном качестве или прослушать музыку.Регистрируйтесь и воспользуйтесь всеми опциями трекера.