Начать новую тему Ответить на тему  [ 1 сообщение ] 
Статистика раздачи
Размер|   1.71 ГБ    |   1 832 460 306 байт   
Раздают|   366   Качают|   28      
Последний личер: | 4 дня 16 часов 41 минуту 59 секунд назад  | (Google it!)
Автор Сообщение
Непрочитанное сообщение Добавлено: 24 янв 2020, 18:55 
Ответить с цитатой
Не в сети
Администратор
Администратор
Аватара пользователя


Открыть статистику

Раздал: 348.21 ГБ
Скачал: 6.65 ГБ
Ратио: 1048.386


Зарегистрирован: 01 июл 2016, 17:16
Сообщения: 946
Баллы репутации: 10
За самый скачиваемый релиз
Медали: 5
за участие (1) Создание сайта (1) За 100 релизов (1) за 200 релизов (1)
За 500 релизов (1)
Мидуэй / Midway (2019) WEBRip-AVC | Line»Скачать торрент

Информация о фильме
Название: Мидуэй
Оригинальное название: Midway
Год выпуска: 2019
Жанр: Боевик, драма, военный, история
Режиссер: Роланд Эммерих
В ролях: Эд Скрейн, Патрик Уилсон, Вуди Харрельсон, Люк Эванс, Мэнди Мур, Люк, Дэннис Куэйд, Аарон Экхарт, Киан Джонсон, Ник Джонас



О фильме:
История одного из самых масштабных и стратегически важных морских сражений на Тихом океане Второй мировой войны. В июне 1942 года американский флот под командованием адмирала Честера Нимица одержал победу над японцами в сражении у атолла Мидуэй, что стало ключевым моментом в Тихоокеанской войне.

Страна: США, Гонконг, Канада, Китай
Студия: AGC Studios, Centropolis Entertainment, Entertainment One
Продолжительность: 02:16:00
Перевод: Дублированный [Line]

Файл
Кодек: MPEG-4 AVC
Качество: WEBRip-AVC
Видео: 1411 Кбит/с, 1024x448
Звук:
Аудио #01: Русский (AC3, 2 ch, 192 Кбит/с)
Аудио #02: Английский (AC3, 2 ch, 192 Кбит/с)
Субтитры: Русские (Forsed), английские, китайские (хардсаб)

Медиа инфо: Общее
Уникальный идентификатор : 229276676401594356930897984348036843992 (0xAC7D14E7E029200CBE93B5416860C9D8)
Полное имя : D:\Мидуэй.2019.WEBRip (AVC).mkv
Формат : Matroska
Версия формата : Version 4
Размер файла : 1,71 Гбайт
Продолжительность : 2 ч. 16 м.
Общий поток : 1796 Кбит/сек
Дата кодирования : UTC 2020-01-23 21:00:23
Программа кодирования : mkvmerge v8.3.0 ('Over the Horizon') 64bit
Библиотека кодирования : libebml v1.3.1 + libmatroska v1.4.2

Видео
Идентификатор : 1
Формат : AVC
Формат/Информация : Advanced Video Codec
Профиль формата : High@L4.1
Настройки формата : CABAC / 11 Ref Frames
Параметр CABAC формата : Да
Параметр RefFrames формата : 11 кадров
Идентификатор кодека : V_MPEG4/ISO/AVC
Продолжительность : 2 ч. 16 м.
Битрейт : 1411 Кбит/сек
Ширина : 1024 пикселя
Высота : 448 пикселей
Соотношение сторон : 2,25:1
Режим частоты кадров : Постоянный
Частота кадров : 24,000 кадра/сек
Цветовое пространство : YUV
Субдискретизация насыщенности : 4:2:0
Битовая глубина : 8 бит
Тип развёртки : Прогрессивная
Бит/(Пиксели*Кадры) : 0.128
Размер потока : 1,34 Гбайт (79%)
Библиотека кодирования : x264 core 148 r2638 7599210
Настройки программы : cabac=1 / ref=11 / deblock=1:2:2 / analyse=0x3:0x113 / me=umh / subme=10 / psy=1 / psy_rd=1.00:0.15 / mixed_ref=1 / me_range=48 / chroma_me=1 / trellis=2 / 8x8dct=1 / cqm=0 / deadzone=21,11 / fast_pskip=1 / chroma_qp_offset=-1 / threads=6 / lookahead_threads=1 / sliced_threads=0 / nr=0 / decimate=1 / interlaced=0 / bluray_compat=0 / constrained_intra=0 / bframes=3 / b_pyramid=2 / b_adapt=2 / b_bias=0 / direct=3 / weightb=1 / open_gop=0 / weightp=2 / keyint=240 / keyint_min=23 / scenecut=40 / intra_refresh=0 / rc_lookahead=40 / rc=2pass / mbtree=1 / bitrate=1411 / ratetol=1.0 / qcomp=0.60 / qpmin=0 / qpmax=69 / qpstep=4 / cplxblur=20.0 / qblur=0.5 / vbv_maxrate=50000 / vbv_bufsize=62500 / nal_hrd=none / filler=0 / ip_ratio=1.40 / aq=1:1.00
Default : Да
Forced : Нет

Аудио #1
Идентификатор : 2
Формат : AC-3
Формат/Информация : Audio Coding 3
Коммерческое название : Dolby Digital
Идентификатор кодека : A_AC3
Продолжительность : 2 ч. 16 м.
Вид битрейта : Постоянный
Битрейт : 192 Кбит/сек
Каналы : 2 канала
Channel layout : L R
Частота : 48,0 КГц
Частота кадров : 31,250 кадров/сек (1536 SPF)
Битовая глубина : 16 бит
Метод сжатия : С потерями
Размер потока : 187 Мбайт (11%)
Заголовок : Dub [Line]
Язык : Russian
ServiceKind/String : Complete Main
Default : Да
Forced : Нет

Аудио #2
Идентификатор : 3
Формат : AC-3
Формат/Информация : Audio Coding 3
Коммерческое название : Dolby Digital
Идентификатор кодека : A_AC3
Продолжительность : 2 ч. 16 м.
Вид битрейта : Постоянный
Битрейт : 192 Кбит/сек
Каналы : 2 канала
Channel layout : L R
Частота : 48,0 КГц
Частота кадров : 31,250 кадров/сек (1536 SPF)
Битовая глубина : 16 бит
Метод сжатия : С потерями
Размер потока : 187 Мбайт (11%)
Язык : English
ServiceKind/String : Complete Main
Default : Нет
Forced : Нет

Текст #1
Идентификатор : 4
Формат : UTF-8
Идентификатор кодека : S_TEXT/UTF8
Идентификатор кодека/Информация : UTF-8 Plain Text
Продолжительность : 2 ч. 5 м.
Битрейт : 6 бит/сек
ElementCount : 84
Размер потока : 5,61 Кбайт (0%)
Заголовок : forsed
Язык : Russian
Default : Да
Forced : Нет

Текст #2
Идентификатор : 5
Формат : UTF-8
Идентификатор кодека : S_TEXT/UTF8
Идентификатор кодека/Информация : UTF-8 Plain Text
Продолжительность : 2 ч. 6 м.
Битрейт : 41 бит/сек
ElementCount : 1397
Размер потока : 38,8 Кбайт (0%)
Язык : English
Default : Нет
Forced : Нет


Релиз подготовлен:
Релиз группа:

_________________



 Профиль
 
 
Понравилась тема расскажи друзьям!


  • Торрент

Мидуэй / Midway (2019) WEBRip-AVC | Line.torrent 
Зарегистрирован:  24 янв 2020, 18:55  HASH|917b2921cef8015b9d4bba2760e7e62e2f9ce593| (Google it!)
Статус:  Проверено | admin
Торрент:  Размер: 1.71 ГБ | Скачан: 19379 раз | Торрент файл: 17.96 КБ  
Здоровье:   100%
Поделиться:
 
Как качать?
Как качать?
X
Скачайте торрент и откройте его в своем клиенте
uTorrent

скачать программу,
дождитесь окончания загрузки.
* Как смотреть?
Как смотреть?
X

Для работы Magic Player
Вам необходимо установить
Ace Stream P2P Multimedia Plug-in

Установить

Для работы Magic Player
Вам необходимо включить
Ace Stream P2P Multimedia Plug-in

Инструкция
Показать сообщения за:  Поле сортировки  
Начать новую тему Ответить на тему  [ 1 сообщение ] 

   Похожие торренты   Автор   Ответы   Просмотры   Последнее сообщение 
Непрочитанные сообщения Скачать торрент Магнет ссылка Проверено Перейти к первому непрочитанному сообщениюМидуэй | Midway (Роланд Эммерих) [2019 г., Боевик, драма, военный, история, WEB-DLRip] DUB | Чистый звук За каждые 100 байт. аплоада (сидирования) этого торрента начисляется бонус: 1.000

в форуме Фильмы WEB-DLRip / WEB-DLRip 720 / WEB-DLRip 1080, Размер: 1.37 ГБ, Здоровье: 100%

admin

0
7|0

144
255

12 янв 2020, 00:45

admin Перейти к последнему сообщению

Непрочитанные сообщения Скачать торрент Магнет ссылка Проверено Перейти к первому непрочитанному сообщениюГемини / Gemini Man (2019) WEBRip | Line За каждые 100 байт. аплоада (сидирования) этого торрента начисляется бонус: 1.000

в форуме Фильмы 2015-2020 г., Размер: 747.39 МБ, Здоровье: 100%

admin

0
177|3

431
8318

24 ноя 2019, 21:33

admin Перейти к последнему сообщению

Непрочитанные сообщения Скачать торрент Магнет ссылка Проверено Перейти к первому непрочитанному сообщениюТерминатор: Темные судьбы / Terminator: Dark Fate [2019, Фантастика, боевик, приключения, WEB-DLRip | Line] За каждые 100 байт. аплоада (сидирования) этого торрента начисляется бонус: 1.000

в форуме Фильмы WEB-DLRip / WEB-DLRip 720 / WEB-DLRip 1080, Размер: 2.05 ГБ, Здоровье: 100%

admin

0
1886|140

143
130270

14 янв 2020, 17:22

admin Перейти к последнему сообщению

Непрочитанные сообщения Скачать торрент Магнет ссылка Проверено Перейти к первому непрочитанному сообщениюТерминатор: Темные судьбы / Terminator: Dark Fate [2019, Фантастика, боевик, приключения, WEB-DLRip | Line] За каждые 100 байт. аплоада (сидирования) этого торрента начисляется бонус: 1.000

в форуме Фильмы WEB-DLRip / WEB-DLRip 720 / WEB-DLRip 1080, Размер: 1.37 ГБ, Здоровье: 100%

admin

0
4385|155

151
0

14 янв 2020, 17:27

admin Перейти к последнему сообщению

Непрочитанные сообщения Скачать торрент Магнет ссылка Проверено Перейти к первому непрочитанному сообщениюТекст (2019) WEBRip 720p За каждые 100 байт. аплоада (сидирования) этого торрента начисляется бонус: 1.000

в форуме Российское кино, Размер: 1.21 ГБ, Здоровье: 100%

admin

0
6012|298

532
114434

01 дек 2019, 12:22

admin Перейти к последнему сообщению



Кто сейчас на конференции

Сейчас этот форум просматривают: нет зарегистрированных пользователей и гости: 4


Вы не можете начинать темы
Вы не можете отвечать на сообщения
Вы не можете редактировать свои сообщения
Вы не можете удалять свои сообщения
Вы не можете добавлять вложения

Найти:
Перейти:  
cron
Ресурс не предоставляет электронные версии произведений, а занимается лишь коллекционированием и каталогизацией ссылок, присылаемых и публикуемых на форуме нашими читателями. Если вы являетесь правообладателем какого-либо представленного материала и не желаете чтобы ссылка на него находилась в нашем каталоге, свяжитесь с нами и мы незамедлительно удалим её. Файлы для обмена на трекере предоставлены пользователями сайта, и администрация не несёт ответственности за их содержание. Просьба не заливать файлы, защищенные авторскими правами, а также файлы нелегального содержания!
Информационное сообщение...
Доброго времени суток! Если вы попали на наш портал, советуем задержаться у нас и посмотрель материалы.А лучше всего оставайтесь и делитесь своими файлами со всем народом.Кроме этого вы сможете просмотреть нужный фильм в оригинальном качестве или прослушать музыку.Регистрируйтесь и воспользуйтесь всеми опциями трекера.
ppkBB3cker v.2 © 2008-2014 @ PPK