Начать новую тему Ответить на тему  [ 1 сообщение ] 
Статистика раздачи
Размер|   1.75 ГБ    |   1 880 806 730 байт   
Раздают|   337   Качают|   73      
Последний личер: | 1 день 8 часов 21 минуту 30 секунд назад  | (Google it!)
Автор Сообщение
Непрочитанное сообщение Добавлено: 18 мар 2020, 21:56 
Ответить с цитатой
Не в сети
Администратор
Администратор
Аватара пользователя


Открыть статистику

Раздал: 3.4 ТБ
Скачал: 6.65 ГБ
Ратио: 1520.059


Зарегистрирован: 01 июл 2016, 17:16
Сообщения: 1577
Баллы репутации: 10
За самый скачиваемый релиз
Медали: 7
за участие (1) Создание сайта (1) За 100 релизов (1) за 200 релизов (1)
За 500 релизов (1) За 1000 релизов (1) Кандидат на повышение (1)
Зеркало [1974, драма, биография, BDRip 1080р]»Скачать торрент

Название: Зеркало
Год выхода: 1974
Жанр: драма, биография
Режиссер: Андрей Тарковский
В ролях: Маргарита Терехова, Олег Янковский, Филипп Янковский, Игнат Данильцев, Николай Гринько, Алла Демидова, Юрий Назаров, Анатолий Солоницын, Лариса Тарковская, Тамара Огородникова

О фильме: Герой картины мучительно боится потерять любовь и понимание близких людей: матери, любимой женщины, сына. И чувствует, что жизнь с каждым днем все дальше уводит их друг от друга. Пытаясь сохранить семью, он обращается памятью к самым сильным впечатлениям своего детства, стараясь в том, детском, мировосприятии найти опору и оправдание своим сегодняшним переживаниям.



Выпущено: СССР
Продолжительность: 01:47:01
Озвучивание: не требуется
Субтитры: нет

Rip by Есмуханов Данияр Исламбекович | daniyar.esmuhanov

Файл
Формат: MKV
Качество: BDRip 1080р
Видео:1552x1072, 23,976 (24000/1001) кадра/сек, ~3150 Кбит/сек
Аудио:48,0 КГц, AC3, 2 ch, 192 kbps

Медиа инфо: Общее
Уникальный идентификатор : 200118493213099331690549998931542107510 (0x968D6B7B52206AA69FE875F8CCD16576)
Полное имя : C:\Users\Данияр\Desktop\Раздача\Зеркало.daniyar.esmuhanov\Зеркало (драма, биография) 1974.mkv
Формат : Matroska
Версия формата : Version 4
Размер файла : 1,75 Гбайт
Продолжительность : 1 ч. 47 м.
Общий поток : 2343 Кбит/сек
Название фильма : Исходник: Blu-ray Disc | Автор рипа: Есмуханов Данияр Исламбекович | daniyar.esmuhanov
Дата кодирования : UTC 2020-03-16 22:56:38
Программа кодирования : mkvmerge v8.3.0 ('Over the Horizon') 64bit
Библиотека кодирования : libebml v1.3.1 + libmatroska v1.4.2

Видео
Идентификатор : 1
Формат : AVC
Формат/Информация : Advanced Video Codec
Профиль формата : High@L4.1
Настройки формата : CABAC / 4 Ref Frames
Параметр CABAC формата : Да
Параметр RefFrames формата : 4 кадра
Идентификатор кодека : V_MPEG4/ISO/AVC
Продолжительность : 1 ч. 47 м.
Битрейт : Переменный битрейт: 62,5 Мбит/сек | 2150 Кбит/сек | 3150 Кбит/сек
Ширина : 1552 пикселя
Высота : 1072 пикселя
Соотношение сторон : 1,448
Режим частоты кадров : Постоянный
Частота кадров : 23,976 (24000/1001) кадра/сек
Цветовое пространство : YUV
Субдискретизация насыщенности : 4:2:0
Битовая глубина : 8 бит
Тип развёртки : Прогрессивная
Бит/(Пиксели*Кадры) : 0.054
Размер потока : 1,61 Гбайт (92%)
Заголовок : Исходник: Blu-ray Disc | Автор рипа: Есмуханов Данияр Исламбекович | daniyar.esmuhanov
Библиотека кодирования : x264 core 152
Настройки программы : cabac=1 / ref=4 / deblock=1:-1:-1 / analyse=0x3:0x133 / me=umh / subme=9 / psy=1 / psy_rd=1.00:0.15 / mixed_ref=1 / me_range=24 / chroma_me=1 / trellis=2 / 8x8dct=1 / cqm=0 / deadzone=21,11 / fast_pskip=0 / chroma_qp_offset=-3 / threads=12 / lookahead_threads=1 / sliced_threads=0 / nr=0 / decimate=1 / interlaced=0 / bluray_compat=0 / constrained_intra=0 / bframes=3 / b_pyramid=2 / b_adapt=2 / b_bias=0 / direct=3 / weightb=1 / open_gop=0 / weightp=2 / keyint=250 / keyint_min=23 / scenecut=40 / intra_refresh=0 / rc_lookahead=60 / rc=2pass / mbtree=1 / bitrate=2150 / ratetol=1.0 / qcomp=0.60 / qpmin=0 / qpmax=69 / qpstep=4 / cplxblur=20.0 / qblur=0.5 / vbv_maxrate=31250 / vbv_bufsize=31250 / nal_hrd=none / filler=0 / ip_ratio=1.40 / aq=1:1.00
Язык : Russian
Default : Да
Forced : Да

Аудио
Идентификатор : 2
Формат : AC-3
Формат/Информация : Audio Coding 3
Коммерческое название : Dolby Digital
Идентификатор кодека : A_AC3
Продолжительность : 1 ч. 47 м.
Вид битрейта : Постоянный
Битрейт : 192 Кбит/сек
Каналы : 2 канала
ChannelLayout : L R
Частота : 48,0 КГц
Частота кадров : 31,250 кадров/сек (1536 SPF)
Метод сжатия : С потерями
Размер потока : 147 Мбайт (8%)
Язык : Russian
ServiceKind/String : Complete Main
Default : Да
Forced : Да


Релиз подготовлен:
Релиз группа:

_________________



 Профиль
 
 
Понравилась тема расскажи друзьям!


  • Торрент

Зеркало [1974, драма, биография, BDRip 1080р].torrent 
Зарегистрирован:  18 мар 2020, 21:56  HASH|eab38de4362d23f61e72a058dc4898fc6e1dc8f8| (Google it!)
Статус:  Проверено | хакер
Торрент:  Размер: 1.75 ГБ | Скачан: 385 раз | Торрент файл: 24.68 КБ  
Здоровье:   100%
Поделиться:
 
Как качать?
Как качать?
X
Скачайте торрент и откройте его в своем клиенте
uTorrent

скачать программу,
дождитесь окончания загрузки.
* Как смотреть?
Как смотреть?
X

Для работы Magic Player
Вам необходимо установить
Ace Stream P2P Multimedia Plug-in

Установить

Для работы Magic Player
Вам необходимо включить
Ace Stream P2P Multimedia Plug-in

Инструкция
Показать сообщения за:  Поле сортировки  
Начать новую тему Ответить на тему  [ 1 сообщение ] 

   Похожие торренты   Автор   Ответы   Просмотры   Последнее сообщение 
Непрочитанные сообщения Скачать торрент Магнет ссылка Проверено Перейти к первому непрочитанному сообщениюСкандал / Bombshell (Джей Роуч) [2019 г., Драма, биография, BDRip] DUB | iTunes За каждые 100 байт. аплоада (сидирования) этого торрента начисляется бонус: 1.000

в форуме Фильмы HDRip / BDRIp / 720, 1080, Размер: 1.41 ГБ, Здоровье: 100%

хакер

0
1282|57

109
38161

08 мар 2020, 10:09

хакер Перейти к последнему сообщению

Непрочитанные сообщения Скачать торрент Магнет ссылка Проверено Перейти к первому непрочитанному сообщениюСкандал / Bombshell (Джей Роуч) [2019 г., Драма, биография, BDRip 720p] DUB | iTunes За каждые 100 байт. аплоада (сидирования) этого торрента начисляется бонус: 1.000

в форуме Фильмы HDRip / BDRIp / 720, 1080, Размер: 4.95 ГБ, Здоровье: 100%

хакер

0
445|30

110
10847

08 мар 2020, 10:13

хакер Перейти к последнему сообщению

Непрочитанные сообщения Скачать торрент Магнет ссылка Проверено Перейти к первому непрочитанному сообщениюЛюди-кошки / Cat People [1982, триллер, фэнтези, ужасы, драма, мелодрама, BDRip 1080р] За каждые 100 байт. аплоада (сидирования) этого торрента начисляется бонус: 1.000

в форуме Классика зарубежного кино, Размер: 1.93 ГБ, Здоровье: 100%

хакер

0
284|112

54
610

02 апр 2020, 23:20

хакер Перейти к последнему сообщению

Непрочитанные сообщения Скачать торрент Магнет ссылка Проверено Перейти к первому непрочитанному сообщениюЗоя (1-8 серии из 8) [2010, Биография, драма, SATRip] За каждые 100 байт. аплоада (сидирования) этого торрента начисляется бонус: 1.000

в форуме Законченные русские сериалы, Размер: 4.68 ГБ, Здоровье: 100%

хакер

0
10|1

206
405

10 фев 2020, 22:01

хакер Перейти к последнему сообщению

Непрочитанные сообщения Скачать торрент Магнет ссылка Проверено Перейти к первому непрочитанному сообщениюИп Ман 4 / Yip Man 4 [2019, Боевик, драма, биография, история, WEB-DLRip | AlphaProject] За каждые 100 байт. аплоада (сидирования) этого торрента начисляется бонус: 1.000

в форуме Фильмы WEB-DLRip / WEB-DLRip 720 / WEB-DLRip 1080, Размер: 1.37 ГБ, Здоровье: 100%

хакер

0
754|34

1050
9110

10 фев 2020, 21:32

хакер Перейти к последнему сообщению



Кто сейчас на конференции

Сейчас этот форум просматривают: нет зарегистрированных пользователей и гости: 2


Вы не можете начинать темы
Вы не можете отвечать на сообщения
Вы не можете редактировать свои сообщения
Вы не можете удалять свои сообщения
Вы не можете добавлять вложения

Найти:
Перейти:  
Ресурс не предоставляет электронные версии произведений, а занимается лишь коллекционированием и каталогизацией ссылок, присылаемых и публикуемых на форуме нашими читателями. Если вы являетесь правообладателем какого-либо представленного материала и не желаете чтобы ссылка на него находилась в нашем каталоге, свяжитесь с нами и мы незамедлительно удалим её. Файлы для обмена на трекере предоставлены пользователями сайта, и администрация не несёт ответственности за их содержание. Просьба не заливать файлы, защищенные авторскими правами, а также файлы нелегального содержания!
Информационное сообщение...
Доброго времени суток! Если вы попали на наш портал, советуем задержаться у нас и посмотрель материалы.А лучше всего оставайтесь и делитесь своими файлами со всем народом.Кроме этого вы сможете просмотреть нужный фильм в оригинальном качестве или прослушать музыку.Регистрируйтесь и воспользуйтесь всеми опциями трекера.