Начать новую тему Ответить на тему  [ 1 сообщение ] 
Статистика раздачи
Размер|   744.2 МБ    |   780 348 159 байт   
Раздают: 37  [0 байт/сек]   Качают: 6 [0 байт/сек]    
Последний личер: | 5 дней 14 часов 37 минут 59 секунд назад  | (Google it!)
Автор Сообщение
Непрочитанное сообщение Добавлено: 29 июн 2020, 20:19 
Ответить с цитатой
Не в сети
Администратор
Администратор
Аватара пользователя


Открыть статистику

Раздал: 6.31 ТБ
Скачал: 47.5 ГБ
Ратио: 1134.919


Зарегистрирован: 01 июл 2016, 17:16
Сообщения: 2851
Баллы репутации: 10
За самый скачиваемый релиз
Медали: 8
за участие (1) Создание сайта (1) За 100 релизов (1) за 200 релизов (1)
За 500 релизов (1) За 1000 релизов (1) Кандидат на повышение (1) Подписчику в группе ВК (1)
Я – «Береза» (1964) VHSRip-AVC от New-Team 

Страна: СССР
Производство: Мосфильм, ТО «Экран»
Жанр: драма, военный
Год выпуска: 1964
Продолжительность: 01:04:34
Перевод: Не требуется
Cубтитры: нет
Оригинальная аудиодорожка: русский

Режиссер: Дамир Вятич-Бережных

В ролях:
Наталья Фатеева, Владимир Ивашов, Николай Крючков, Феликс Яворский, Вадим Захарченко, Иван Жеваго, Константин Барташевич, Арво Круусемент, Олег Голубицкий, Л. Шумахер...

Описание:
О девушке-разведчице «Березе», ее опасной работе в тылу врага в годы Второй мировой войны. Спустя двадцать лет героиню разыскивает журналист и берет у нее интервью…




Исходник: VHS
Качество видео: VHSRip-AVC
Формат видео: MKV

Видео: 704->760x570 (4:3), 25,000 кадров/сек, H264~ 1418 кбит/сек, 0.141 бит/пиксель
Аудио: 48 kHz, Dolby Digital AC3 2.0, 192 kbps

Медиа инфо: Общее
Полное имя : YA–«Bereza».1964.VHSRip-AVC_[New-team]_by_AVP_Studio.mkv
Формат : Matroska
Версия формата : Version 2
Размер файла : 744 Мбайт
Продолжительность : 1 ч. 4 м.
Общий поток : 1611 Кбит/сек
Дата кодирования : UTC 2020-06-21 15:07:55
Программа кодирования : mkvmerge v6.9.1 ('Blue Panther') 32bit built on Apr 18 2014 18:15:44
Библиотека кодирования : libebml v1.3.0 + libmatroska v1.4.1

Видео
Идентификатор : 1
Формат : AVC
Формат/Информация : Advanced Video Codec
Профиль формата : High@L4.1
Настройки формата : CABAC / 10 Ref Frames
Параметр CABAC формата : Да
Параметр RefFrames формата : 10 кадров
Идентификатор кодека : V_MPEG4/ISO/AVC
Продолжительность : 1 ч. 4 м.
Битрейт : 1418 Кбит/сек
Ширина : 704 пикселя
Высота : 570 пикселей
Соотношение сторон : 4:3
Режим частоты кадров : Постоянный
Частота кадров : 25,000 кадров/сек
Цветовое пространство : YUV
Субдискретизация насыщенности : 4:2:0
Битовая глубина : 8 бит
Тип развёртки : Прогрессивная
Бит/(Пиксели*Кадры) : 0.141
Размер потока : 641 Мбайт (86%)
Библиотека кодирования : x264 core 160 r3000 33f9e14
Настройки программы : cabac=1 / ref=10 / deblock=1:-2:-1 / analyse=0x3:0x113 / me=umh / subme=10 / psy=1 / psy_rd=1.00:0.00 / mixed_ref=1 / me_range=32 / chroma_me=1 / trellis=2 / 8x8dct=1 / cqm=0 / deadzone=21,11 / fast_pskip=1 / chroma_qp_offset=-2 / threads=6 / lookahead_threads=1 / sliced_threads=0 / nr=0 / decimate=0 / interlaced=0 / bluray_compat=0 / constrained_intra=0 / bframes=8 / b_pyramid=2 / b_adapt=2 / b_bias=0 / direct=3 / weightb=1 / open_gop=0 / weightp=2 / keyint=250 / keyint_min=25 / scenecut=40 / intra_refresh=0 / rc=2pass / mbtree=0 / bitrate=1418 / ratetol=1.0 / qcomp=0.60 / qpmin=0 / qpmax=69 / qpstep=4 / cplxblur=20.0 / qblur=0.5 / ip_ratio=1.40 / pb_ratio=1.30 / aq=1:1.00
Default : Да
Forced : Нет

Аудио
Идентификатор : 2
Формат : AC-3
Формат/Информация : Audio Coding 3
Коммерческое название : Dolby Digital
Идентификатор кодека : A_AC3
Продолжительность : 1 ч. 4 м.
Вид битрейта : Постоянный
Битрейт : 192 Кбит/сек
Каналы : 2 канала
ChannelLayout : L R
Частота : 48,0 КГц
Частота кадров : 31,250 кадров/сек (1536 SPF)
Метод сжатия : С потерями
Размер потока : 88,7 Мбайт (12%)
Default : Да
Forced : Нет


Релиз подготовлен:


_________________



 Профиль
 
 
Понравилась тема расскажи друзьям!


Я – «Береза» (1964) VHSRip-AVC от New-Team.torrent 
Зарегистрирован:  29 июн 2020, 20:19  HASH|4199f69822e22b8ec5cbaee2100295ce153110dd| (Google it!)
Статус:  √ Проверен  хакер (29 июн 2020, 20:20)
Торрент:  Размер: 744.2 МБ | Скачан: 480 раз | Торрент файл: 15.52 КБ  
Приватный:    Нет (DHT включён)
Здоровье:   100%
Поделиться:
 
Как качать?
Как качать?
X
Скачайте торрент и откройте его в своем клиенте
uTorrent

скачать программу,
дождитесь окончания загрузки.
* Как смотреть?
Как смотреть?
X

Для работы Magic Player
Вам необходимо установить
Ace Stream P2P Multimedia Plug-in

Установить

Для работы Magic Player
Вам необходимо включить
Ace Stream P2P Multimedia Plug-in

Инструкция
Показать сообщения за:  Поле сортировки  
Начать новую тему Ответить на тему  [ 1 сообщение ] 

   Похожие торренты   Автор   Ответы   Просмотры   Последнее сообщение 
Непрочитанные сообщения Скачать торрент Магнет ссылка √ Проверен Перейти к первому непрочитанному сообщениюПока фронт в обороне (1964) SATRip от New-Team За каждые 744.2 байт. аплоада (сидирования) этого торрента начисляется бонус: 2.000

в форуме Фильмы СССР, Размер: 744.41 МБ, Здоровье: ???%

хакер

0
0|2

140
385

18 апр 2020, 18:06

хакер Перейти к последнему сообщению

Непрочитанные сообщения Скачать торрент Магнет ссылка √ Проверен Перейти к первому непрочитанному сообщениюСиняя тетрадь (1964) DVDRip-AVC За каждые 744.2 байт. аплоада (сидирования) этого торрента начисляется бонус: 2.000

в форуме Фильмы СССР, Размер: 1.08 ГБ, Здоровье: 100%

хакер

0
19|1

163
286

18 апр 2020, 18:23

хакер Перейти к последнему сообщению

Непрочитанные сообщения Скачать торрент Магнет ссылка √ Проверен Перейти к первому непрочитанному сообщениюЖенщина-демон / Онибаба - злая ведьма / Onibaba (1964) BDRip 720p от liosaa | A, L1 За каждые 744.2 байт. аплоада (сидирования) этого торрента начисляется бонус: 2.000

в форуме Классика зарубежного кино, Размер: 4.66 ГБ, Здоровье: ???%

хакер

0
0|1

256
0

03 мар 2020, 22:34

хакер Перейти к последнему сообщению

Непрочитанные сообщения Скачать торрент Магнет ссылка √ Проверен Перейти к первому непрочитанному сообщениюОсень Шайеннов / Cheyenne Autumn [1964, Драма, Вестерн, История, WEB-DLRip 720p] За каждые 744.2 байт. аплоада (сидирования) этого торрента начисляется бонус: 2.000

в форуме Фильмы до 2000 г., Размер: 3.89 ГБ, Здоровье: 100%

хакер

0
14|1

82
829

08 июн 2020, 20:00

хакер Перейти к последнему сообщению

Непрочитанные сообщения Скачать торрент Магнет ссылка √ Проверен Перейти к первому непрочитанному сообщениюПриключения капитана Врунгеля [01-13 из 13] (1976-1979) DVDRip-AVC от New-Team За каждые 744.2 байт. аплоада (сидирования) этого торрента начисляется бонус: 2.000

в форуме Мульт сериалы, Размер: 1.4 ГБ, Здоровье: 100%

хакер

0
13|2

309
1095

26 фев 2020, 20:34

хакер Перейти к последнему сообщению



Кто сейчас на конференции

Сейчас этот форум просматривают: нет зарегистрированных пользователей и гости: 1


Вы не можете начинать темы
Вы не можете отвечать на сообщения
Вы не можете редактировать свои сообщения
Вы не можете удалять свои сообщения
Вы не можете добавлять вложения

Найти:
Перейти:  
cron
!ВНИМАНИЕ!

Сайт не распространяет и не хранит электронные версии произведений, а лишь предоставляет доступ к создаваемому пользователями каталогу ссылок на торрент-файлы, которые содержат только списки хеш-сумм, убедительная просьба с жалобами обращаться напрямую к пользователю.
The site does not extend and does not store electronic(digital) versions of products, and only gives access to a reference catalogue created by users on torrent-files which contain only lists of the hash-sums, the earnest entreaty, with complaints(abuse) to access directly to the user.
Привет, меня зовут Ёко, я что-то типа ангела хранителя Mytorrnado club! (Если вы попали на наш портал, советуем задержаться у нас и посмотрель материалы.А лучше всего оставайтесь и делитесь своими файлами со всем народом.Кроме этого вы сможете просмотреть нужный фильм в оригинальном качестве.Регистрируйтесь и воспользуйтесь всеми опциями трекера.)
ppkBB3cker v.2 © 2008-2014 @ PPK