Начать новую тему Ответить на тему  [ 1 сообщение ] 
Статистика раздачи
Размер|   1.37 ГБ    |   1 472 170 722 байт   
Раздают|   4   Качают|   0      
Последний личер: |  назад  | (Google it!)
Автор Сообщение
Непрочитанное сообщение Добавлено: 30 июл 2016, 18:03 
Ответить с цитатой
Не в сети
Администратор
Администратор
Аватара пользователя


Открыть статистику

Раздал: 3.4 ТБ
Скачал: 6.65 ГБ
Ратио: 1522.477


Зарегистрирован: 01 июл 2016, 17:16
Сообщения: 1601
Баллы репутации: 10
За самый скачиваемый релиз
Медали: 7
за участие (1) Создание сайта (1) За 100 релизов (1) за 200 релизов (1)
За 500 релизов (1) За 1000 релизов (1) Кандидат на повышение (1)
Берегите мужчин (1982) DVDRip»Скачать торрент

Информация о фильме
Название: Берегите мужчин
Год выхода: 1982
Жанр: Комедия
Режиссёр: Александр Серый
В ролях: Леонид Куравлёв, Нина Русланова, Александр Лазарев, Александр Вокач, Наталья Селезнёва, Нина Агапова, Вадим Захарченко, Николай Кочегаров,
Римма Маркова, Марина Стриженова

О фильме: Она — деловая, мужественная, энергичная. Он — бесхребетный, неловкий и к тому же не поддающийся «исправлению». Дело идет к разводу. Тем более, что на горизонте вдруг появляется пылкий поклонник ее красоты. Однако это обстоятельство, в конечном счете, приводит к неожиданному результату...



Страна: СССР
Студия: Мосфильм
Продолжительность: 01:15:27
Перевод: Не требуется (оригинальный)

Файл
Формат: avi
Качество: DVDRip (DVD5)
Видео: XviD, 688х368, 25fps, 2400kbps
Аудио: AC3 Dolby Digital, 2ch, 48000Hz, 192kbps



General
Complete name : Beregite.Muzhchin.1982.O.DVDRip.1400.CurHaJI.avi
Format : AVI
Format/Info : Audio Video Interleave
File size : 1.37 GiB
Duration : 1h 15mn
Overall bit rate : 2 602 Kbps
Movie name : Beregite.Muzhchin.1982.O.DVDRip.1400.CurHaJI
Writing application : VirtualDubMod 1.5.10.3 | http://www.virtualdub-fr.org || (build 2550/release)
Writing library : VirtualDub build 35491/release

Video
ID : 0
Format : MPEG-4 Visual
Format profile : Advanced Simple@L5
Format settings, BVOP : 2
Format settings, QPel : No
Format settings, GMC : No warppoints
Format settings, Matrix : Custom
Codec ID : XVID
Codec ID/Hint : XviD
Duration : 1h 15mn
Bit rate : 2 400 Kbps
Width : 688 pixels
Height : 368 pixels
Display aspect ratio : 1.85:1
Frame rate : 25.000 fps
Color space : YUV
Chroma subsampling : 4:2:0
Bit depth : 8 bits
Scan type : Progressive
Compression mode : Lossy
Bits/(Pixel*Frame) : 0.379
Stream size : 1.26 GiB (92%)
Writing library : XviD 73

Audio
ID : 1
Format : AC-3
Format/Info : Audio Coding 3
Mode extension : CM (complete main)
Format settings, Endianness : Big
Codec ID : 2000
Duration : 1h 15mn
Bit rate mode : Constant
Bit rate : 192 Kbps
Channel(s) : 2 channels
Channel positions : Front: L R
Sampling rate : 48.0 KHz
Bit depth : 16 bits
Compression mode : Lossy
Stream size : 104 MiB (7%)
Alignment : Split accross interleaves
Interleave, duration : 40 ms (1.00 video frame)
Interleave, preload duration : 500 ms


_________________



 Профиль
 
 
Понравилась тема расскажи друзьям!


  • Торрент

Берегите мужчин (1982) DVDRip.torrent 
Зарегистрирован:  30 июл 2016, 18:03  HASH|f23c93164271b9785010bc0f345275526ed7b542| (Google it!)
Статус:  Проверено | хакер
Торрент:  Размер: 1.37 ГБ | Скачан: 287 раз | Торрент файл: 14.52 КБ  
Здоровье:   100%
Поделиться:
 
Как качать?
Как качать?
X
Скачайте торрент и откройте его в своем клиенте
uTorrent

скачать программу,
дождитесь окончания загрузки.
* Как смотреть?
Как смотреть?
X

Для работы Magic Player
Вам необходимо установить
Ace Stream P2P Multimedia Plug-in

Установить

Для работы Magic Player
Вам необходимо включить
Ace Stream P2P Multimedia Plug-in

Инструкция
Показать сообщения за:  Поле сортировки  
Начать новую тему Ответить на тему  [ 1 сообщение ] 

   Похожие торренты   Автор   Ответы   Просмотры   Последнее сообщение 
Непрочитанные сообщения Скачать торрент Магнет ссылка Проверено Перейти к первому непрочитанному сообщениюУильям Тенн - Венера - планета мужчин (2020) MP3 За каждые 100 байт. аплоада (сидирования) этого торрента начисляется бонус: 1.000

в форуме Фантастика и фэнтези, Размер: 136.58 МБ, Здоровье: 100%

хакер

0
32|0

56
982

21 мар 2020, 09:22

хакер Перейти к последнему сообщению

Непрочитанные сообщения Скачать торрент Магнет ссылка Проверено Перейти к первому непрочитанному сообщениюЗапретный мир / Forbidden World [1982, Ужасы, фантастика, BDRip | Вячеслав Котов] За каждые 100 байт. аплоада (сидирования) этого торрента начисляется бонус: 1.000

в форуме Фильмы до 2000 г., Размер: 1.42 ГБ, Здоровье: 100%

хакер

0
15|0

252
209

29 дек 2019, 20:40

хакер Перейти к последнему сообщению

Непрочитанные сообщения Скачать торрент Магнет ссылка Проверено Перейти к первому непрочитанному сообщениюТанцор диско / Disco Dancer (Баббар Субхаш) [1982, мюзикл, драма, мелодрама, WEB-DL 1080p] DUB За каждые 100 байт. аплоада (сидирования) этого торрента начисляется бонус: 1.000

в форуме Фильмы до 2000 г., Размер: 3.13 ГБ, Здоровье: 100%

хакер

0
3|1

12
5

Вчера, 22:25

хакер Перейти к последнему сообщению

Непрочитанные сообщения Скачать торрент Магнет ссылка Проверено Перейти к первому непрочитанному сообщениюЛюди-кошки / Cat People [1982, триллер, фэнтези, ужасы, драма, мелодрама, BDRip 1080р] За каждые 100 байт. аплоада (сидирования) этого торрента начисляется бонус: 1.000

в форуме Классика зарубежного кино, Размер: 1.93 ГБ, Здоровье: 100%

хакер

0
284|112

59
610

02 апр 2020, 23:20

хакер Перейти к последнему сообщению

Непрочитанные сообщения Скачать торрент Магнет ссылка Проверено Перейти к первому непрочитанному сообщениюЧерная Эммануэль: Бунт в женской тюрьме / Насилие в женской тюрьме / Violenza in un carcere femminile / Caged Women (1982) HDRip-AVC За каждые 100 байт. аплоада (сидирования) этого торрента начисляется бонус: 1.000

в форуме Классика зарубежного кино, Размер: 2.19 ГБ, Здоровье: 100%

хакер

0
33|3

387
1052

22 ноя 2019, 20:29

хакер Перейти к последнему сообщению



Кто сейчас на конференции

Сейчас этот форум просматривают: нет зарегистрированных пользователей и гости: 1


Вы не можете начинать темы
Вы не можете отвечать на сообщения
Вы не можете редактировать свои сообщения
Вы не можете удалять свои сообщения
Вы не можете добавлять вложения

Найти:
Перейти:  
cron
Ресурс не предоставляет электронные версии произведений, а занимается лишь коллекционированием и каталогизацией ссылок, присылаемых и публикуемых на форуме нашими читателями. Если вы являетесь правообладателем какого-либо представленного материала и не желаете чтобы ссылка на него находилась в нашем каталоге, свяжитесь с нами и мы незамедлительно удалим её. Файлы для обмена на трекере предоставлены пользователями сайта, и администрация не несёт ответственности за их содержание. Просьба не заливать файлы, защищенные авторскими правами, а также файлы нелегального содержания!
Информационное сообщение...
Доброго времени суток! Если вы попали на наш портал, советуем задержаться у нас и посмотрель материалы.А лучше всего оставайтесь и делитесь своими файлами со всем народом.Кроме этого вы сможете просмотреть нужный фильм в оригинальном качестве или прослушать музыку.Регистрируйтесь и воспользуйтесь всеми опциями трекера.