Начать новую тему Ответить на тему  [ 1 сообщение ] 
Статистика раздачи
Размер|   2.53 ГБ    |   2 714 259 876 байт   
Раздают: 1  [0 байт/сек]   Качают: 0 [0 байт/сек]    
Последний личер: |  назад  | (Google it!)
Автор Сообщение
Непрочитанное сообщение Добавлено: 22 май 2020, 07:14 
Ответить с цитатой
Не в сети
Администратор
Администратор
Аватара пользователя


Открыть статистику

Раздал: 4.76 ТБ
Скачал: 6.65 ГБ
Ратио: 1731.991


Зарегистрирован: 01 июл 2016, 17:16
Сообщения: 2352
Баллы репутации: 10
За самый скачиваемый релиз
Медали: 8
за участие (1) Создание сайта (1) За 100 релизов (1) за 200 релизов (1)
За 500 релизов (1) За 1000 релизов (1) Кандидат на повышение (1) Подписчику в группе ВК (1)
Чертовка в розовом трико / Heller in Pink Tights (1960) WEB-DLRip [H.264] 

Название: Чертовка в розовом трико
Год выпуска: 1960
Производство: США / Paramount Pictures
Жанр: Боевик, Мелодрама, Комедия, Вестерн

Режиссер: Джордж Кьюкор
Продюсер: Марчелло Джирози, Карло Понти, Льюис Е. Цианелли
Актеры: Софи Лорен, Энтони Куинн, Маргарет О’Брайэн, Стив Форрест, Айлин Хекарт, Рамон Новарро, Эдмунд Лоу, Джордж Мэтьюз, Эд Биннс, Уоррен Вэйд

Описание:
Том Хэйли — владелец небольшого передвижного театра, мечтает наконец-то осесть в одном месте, но ему приходится все время скрываться от кредиторов, ведь Анджела, ведущая актриса, очень любит красивые наряды, на которые не всегда есть деньги. Прибыв в очередной городок на гастроли, Анджела занимает деньги у местного богача, проигрывает себя в карты, влюбляет в себя всех мужчин, и Тому ничего не остается делать, как в очередной раз пуститься в бега вместе со всей театральной труппой…


Возраст: 16+ (зрителям, достигшим 16 лет)


Продолжительность: 01:40:42
Качество видео: WEB-DLRip
Перевод: Многоголосый профессиональный, авторский
Субтитры: Английские

Видео: AVC/H.264, 1024x576, ~3015 Kbps
Аудио 1: AC3, 2 ch, 192 Kbps, 48.0 kHz – Русский MVO, Paramount Channel
Аудио 2: AC3, 2 ch, 192 Kbps, 48.0 kHz – Русский AVO, С. Кузнецов
Аудио 3: AC3, 2 ch, 192 Kbps, 48.0 kHz – Английский
Общее
Уникальный идентификатор : 187538719484286908821485724726316174658 (0x8D16A4C04306DF21A7F609485BE70D42)
Полное имя : D:\Downloads\Чертовка в розовом трико. 1960. NNMCLUB.mkv
Формат : Matroska
Версия формата : Version 4 / Version 2
Размер файла : 2,53 Гбайт
Продолжительность : 1 ч. 40 м.
Общий поток : 3593 Кбит/сек
Дата кодирования : UTC 2020-04-17 22:26:00
Программа кодирования : mkvmerge v7.1.0 ('Good Love') 32bit built on Jul 27 2014 12:59:18
Библиотека кодирования : libebml v1.3.0 + libmatroska v1.4.1

Видео
Идентификатор : 1
Формат : AVC
Формат/Информация : Advanced Video Codec
Профиль формата : High@L4.1
Настройки формата : CABAC / 12 Ref Frames
Параметр CABAC формата : Да
Параметр RefFrames формата : 12 кадров
Идентификатор кодека : V_MPEG4/ISO/AVC
Продолжительность : 1 ч. 40 м.
Битрейт : 3015 Кбит/сек
Ширина : 1024 пикселя
Высота : 576 пикселей
Соотношение сторон : 16:9
Режим частоты кадров : Постоянный
Частота кадров : 23,976 (24000/1001) кадра/сек
Цветовое пространство : YUV
Субдискретизация насыщенности : 4:2:0
Битовая глубина : 8 бит
Тип развёртки : Прогрессивная
Бит/(Пиксели*Кадры) : 0.213
Размер потока : 2,12 Гбайт (84%)
Заголовок : Heller in Pink Tights
Библиотека кодирования : x264 core 146 r2538 121396c
Настройки программы : cabac=1 / ref=12 / deblock=1:-1:-1 / analyse=0x3:0x113 / me=umh / subme=10 / psy=1 / psy_rd=1.00:0.10 / mixed_ref=1 / me_range=32 / chroma_me=1 / trellis=2 / 8x8dct=1 / cqm=0 / deadzone=21,11 / fast_pskip=0 / chroma_qp_offset=-3 / threads=6 / lookahead_threads=1 / sliced_threads=0 / nr=0 / decimate=0 / interlaced=0 / bluray_compat=0 / constrained_intra=0 / bframes=7 / b_pyramid=2 / b_adapt=2 / b_bias=0 / direct=3 / weightb=1 / open_gop=0 / weightp=2 / keyint=250 / keyint_min=25 / scenecut=40 / intra_refresh=0 / rc_lookahead=60 / rc=2pass / mbtree=1 / bitrate=3015 / ratetol=1.0 / qcomp=0.60 / qpmin=0 / qpmax=69 / qpstep=4 / cplxblur=20.0 / qblur=0.5 / vbv_maxrate=14000 / vbv_bufsize=14000 / nal_hrd=none / filler=0 / ip_ratio=1.40 / aq=1:1.00
Язык : English
Default : Да
Forced : Нет

Аудио #1
Идентификатор : 2
Формат : AC-3
Формат/Информация : Audio Coding 3
Идентификатор кодека : A_AC3
Продолжительность : 1 ч. 40 м.
Вид битрейта : Постоянный
Битрейт : 192 Кбит/сек
Каналы : 2 канала
Расположение каналов : Front: L R
Частота : 48,0 КГц
Частота кадров : 31,250 кадров/сек (1536 SPF)
Битовая глубина : 16 бит
Метод сжатия : С потерями
Размер потока : 138 Мбайт (5%)
Заголовок : Многоголосый закадровый
Язык : Russian
ServiceKind/String : Complete Main
Default : Да
Forced : Нет

Аудио #2
Идентификатор : 3
Формат : AC-3
Формат/Информация : Audio Coding 3
Идентификатор кодека : A_AC3
Продолжительность : 1 ч. 40 м.
Вид битрейта : Постоянный
Битрейт : 192 Кбит/сек
Каналы : 2 канала
Расположение каналов : Front: L R
Частота : 48,0 КГц
Частота кадров : 31,250 кадров/сек (1536 SPF)
Битовая глубина : 16 бит
Метод сжатия : С потерями
Размер потока : 138 Мбайт (5%)
Заголовок : Авторский, С. Кузнецов
Язык : Russian
ServiceKind/String : Complete Main
Default : Нет
Forced : Нет

Аудио #3
Идентификатор : 4
Формат : AC-3
Формат/Информация : Audio Coding 3
Идентификатор кодека : A_AC3
Продолжительность : 1 ч. 40 м.
Вид битрейта : Постоянный
Битрейт : 192 Кбит/сек
Каналы : 2 канала
Расположение каналов : Front: L R
Частота : 48,0 КГц
Частота кадров : 31,250 кадров/сек (1536 SPF)
Битовая глубина : 16 бит
Метод сжатия : С потерями
Размер потока : 138 Мбайт (5%)
Заголовок : Английский
Язык : English
ServiceKind/String : Complete Main
Default : Нет
Forced : Нет

Текст
Идентификатор : 5
Формат : UTF-8
Идентификатор кодека : S_TEXT/UTF8
Идентификатор кодека/Информация : UTF-8 Plain Text
Продолжительность : 1 ч. 39 м.
Битрейт : 68 бит/сек
ElementCount : 1745
Размер потока : 49,8 Кбайт (0%)
Заголовок : SRT
Язык : English
Default : Нет
Forced : Нет


Релиз подготовлен:


_________________



 Профиль
 
 
Понравилась тема расскажи друзьям!


Чертовка в розовом трико / Heller in Pink Tights (1960) WEB-DLRip [H.264].torrent 
Зарегистрирован:  22 май 2020, 07:14  HASH|248565125cae96b1e4d28412356ea4618a9237bc| (Google it!)
Статус:  √ Проверен  хакер (22 май 2020, 07:15)
Торрент:  Размер: 2.53 ГБ | Скачан: 2 раз | Торрент файл: 13.5 КБ  
Приватный:    Нет (DHT включён)
Здоровье:   100%
Поделиться:
 
Как качать?
Как качать?
X
Скачайте торрент и откройте его в своем клиенте
uTorrent

скачать программу,
дождитесь окончания загрузки.
* Как смотреть?
Как смотреть?
X

Для работы Magic Player
Вам необходимо установить
Ace Stream P2P Multimedia Plug-in

Установить

Для работы Magic Player
Вам необходимо включить
Ace Stream P2P Multimedia Plug-in

Инструкция
Показать сообщения за:  Поле сортировки  
Начать новую тему Ответить на тему  [ 1 сообщение ] 

   Похожие торренты   Автор   Ответы   Просмотры   Последнее сообщение 
Непрочитанные сообщения Скачать торрент Магнет ссылка √ Проверен Перейти к первому непрочитанному сообщениюЛига джентльменов / The League of Gentlemen (1960) BDRip-AVC by msltel | A За каждые 2.53 байт. аплоада (сидирования) этого торрента начисляется бонус: 2.000

в форуме Классика зарубежного кино, Размер: 2.56 ГБ, Здоровье: 100%

хакер

0
5|1

336
672

27 янв 2020, 11:29

хакер Перейти к последнему сообщению

Непрочитанные сообщения Скачать торрент Магнет ссылка √ Проверен Перейти к первому непрочитанному сообщениюPink Floyd - The Later Years: 1987-2019 [Limited Deluxe Edition Box Set] (2019) MP3 За каждые 2.53 байт. аплоада (сидирования) этого торрента начисляется бонус: 2.000

в форуме Зарубежный рок, Размер: 1.95 ГБ, Здоровье: 100%

хакер

0
58|4

320
2575

26 дек 2019, 18:48

хакер Перейти к последнему сообщению

Непрочитанные сообщения Скачать торрент Магнет ссылка √ Проверен Перейти к первому непрочитанному сообщениюЛёд 2 (2020) WEB-DLRip-AVC За каждые 2.53 байт. аплоада (сидирования) этого торрента начисляется бонус: 2.000

в форуме Российское кино, Размер: 747.05 МБ, Здоровье: 100%

K15

0
69|0

177
3127

12 апр 2020, 23:12

K15 Перейти к последнему сообщению

Непрочитанные сообщения Скачать торрент Магнет ссылка √ Проверен Перейти к первому непрочитанному сообщениюНю (2018) WEB-DLRip-AVC | iTunes За каждые 2.53 байт. аплоада (сидирования) этого торрента начисляется бонус: 2.000

в форуме Российское кино, Размер: 1.46 ГБ, Здоровье: 100%

K15

0
10|0

186
1615

02 апр 2020, 00:04

K15 Перейти к последнему сообщению

Непрочитанные сообщения Скачать торрент Магнет ссылка √ Проверен Перейти к первому непрочитанному сообщениюСпутник (2020) WEB-DLRip За каждые 2.53 байт. аплоада (сидирования) этого торрента начисляется бонус: 2.000

в форуме Российское кино, Размер: 1.51 ГБ, Здоровье: 100%

хакер

0
142|6

81
11701

24 апр 2020, 20:46

хакер Перейти к последнему сообщению



Кто сейчас на конференции

Сейчас этот форум просматривают: нет зарегистрированных пользователей и гости: 1


Вы не можете начинать темы
Вы не можете отвечать на сообщения
Вы не можете редактировать свои сообщения
Вы не можете удалять свои сообщения
Вы не можете добавлять вложения

Найти:
Перейти:  
!ВНИМАНИЕ!

Сайт не распространяет и не хранит электронные версии произведений, а лишь предоставляет доступ к создаваемому пользователями каталогу ссылок на торрент-файлы, которые содержат только списки хеш-сумм, убедительная просьба с жалобами обращаться напрямую к пользователю.
The site does not extend and does not store electronic(digital) versions of products, and only gives access to a reference catalogue created by users on torrent-files which contain only lists of the hash-sums, the earnest entreaty, with complaints(abuse) to access directly to the user.
Информационное сообщение...
Доброго времени суток! Если вы попали на наш портал, советуем задержаться у нас и посмотрель материалы.А лучше всего оставайтесь и делитесь своими файлами со всем народом.Кроме этого вы сможете просмотреть нужный фильм в оригинальном качестве или прослушать музыку.Регистрируйтесь и воспользуйтесь всеми опциями трекера.
ppkBB3cker v.2 © 2008-2014 @ PPK