Начать новую тему Ответить на тему  [ 1 сообщение ] 
Статистика раздачи
Размер|   2.56 ГБ    |   2 750 793 184 байт   
Раздают|   14   Качают|   2      
Последний личер: | 21 день 19 часов 44 минуты 23 секунды назад  | (Google it!)
Автор Сообщение
Непрочитанное сообщение Добавлено: 27 янв 2020, 11:29 
Ответить с цитатой
Не в сети
Администратор
Администратор
Аватара пользователя


Открыть статистику

Раздал: 348.23 ГБ
Скачал: 6.65 ГБ
Ратио: 1048.389


Зарегистрирован: 01 июл 2016, 17:16
Сообщения: 952
Баллы репутации: 10
За самый скачиваемый релиз
Медали: 5
за участие (1) Создание сайта (1) За 100 релизов (1) за 200 релизов (1)
За 500 релизов (1)
Лига джентльменов / The League of Gentlemen (1960) BDRip-AVC by msltel | A»Скачать торрент

Название: Лига джентльменов
Оригинальное название: The League of Gentlemen
Год выпуска: 1960
Страна: Великобритания
Жанр: комедия, криминал, триллер
Продолжительность: 01:53:41
Перевод: авторский
Режиссер: Бэзил Дирден
В ролях: Джек Хоукинс, Найджел Патрик, Роджер Ливси, Ричард Аттенборо, Брайан Форбс, Кирон Мур, Теренс Александер, Норман Бёрд, Роберт Кут, Мелисса Стриблинг, Нанетт Ньюман, Лидия Шервуд, Дорис Хэа, Патрик Уаймарк, Джералд Харпер, Брайан Мюррэй

О фильме: Хоукинс, недовольный, что его выгнали из армии, где он верно служил много лет, решает пойти на ограбление банка. Эту идею он позаимствовал из американского триллера и набрал семь нищих офицеров, у некоторых из которых было тёмное прошлое. Все они - классные специалисты по своей части в армии. Банда уходит в подполье, пока каждый этап операции планируется до мельчайших подробностей. По военной части каждый офицер из банды был бы награжден медалью за такую организацию. Когда всё запускается в действие, они спотыкаются на крохотной, неучтённой детали...



Качество: BDRip-AVC
Формат: MKV
Видео: MPEG-4 AVC, 2840 Кбит/с, 1006x576, 24 Кадр/с
Аудио 1: русский, AC3, 192 kbps, 2 ch, 48 kHz [авторский, Алексей Медведев]
Аудио 2: английский, AC3, 192 kbps, 2 ch, 48 kHz [оригинал]
Субтитры: английские
Главы/чаптеры

Медиа инфо: Общее
Уникальный идентификатор : 179164973471914316318870277956797186160 (0x86C9EB3282E109A58347B2FE7C77C070)
Полное имя : D:\Video\Лига джентльменов.1960.BDRip-AVC by msltel.mkv
Формат : Matroska
Версия формата : Version 4
Размер файла : 2,56 Гбайт
Продолжительность : 1 ч. 53 м.
Общий поток : 3226 Кбит/сек
Название фильма : Rip by msltel
Дата кодирования : UTC 2020-01-26 10:30:18
Программа кодирования : mkvmerge v8.2.0 ('World of Adventure') 64bit
Библиотека кодирования : libebml v1.3.1 + libmatroska v1.4.2

Видео
Идентификатор : 1
Формат : AVC
Формат/Информация : Advanced Video Codec
Профиль формата : High@L4.1
Настройки формата : CABAC / 9 Ref Frames
Параметр CABAC формата : Да
Параметр RefFrames формата : 9 кадров
Идентификатор кодека : V_MPEG4/ISO/AVC
Продолжительность : 1 ч. 53 м.
Битрейт : 2840 Кбит/сек
Ширина : 1006 пикселей
Высота : 576 пикселей
Соотношение сторон : 16:9
Режим частоты кадров : Постоянный
Частота кадров : 24,000 кадра/сек
Цветовое пространство : YUV
Субдискретизация насыщенности : 4:2:0
Битовая глубина : 8 бит
Тип развёртки : Прогрессивная
Бит/(Пиксели*Кадры) : 0.204
Размер потока : 2,26 Гбайт (88%)
Библиотека кодирования : x264 core 157 r2969 d4099dd
Настройки программы : cabac=1 / ref=9 / deblock=1:-2:-2 / analyse=0x3:0x113 / me=umh / subme=11 / psy=1 / psy_rd=1.00:0.15 / mixed_ref=1 / me_range=32 / chroma_me=1 / trellis=2 / 8x8dct=1 / cqm=0 / deadzone=21,11 / fast_pskip=0 / chroma_qp_offset=-3 / threads=6 / lookahead_threads=1 / sliced_threads=0 / nr=0 / decimate=1 / interlaced=0 / bluray_compat=0 / constrained_intra=0 / bframes=8 / b_pyramid=2 / b_adapt=2 / b_bias=0 / direct=1 / weightb=1 / open_gop=0 / weightp=2 / keyint=230 / keyint_min=23 / scenecut=40 / intra_refresh=0 / rc_lookahead=40 / rc=crf / mbtree=0 / crf=19.3 / qcomp=0.60 / qpmin=0 / qpmax=69 / qpstep=4 / vbv_maxrate=50000 / vbv_bufsize=62500 / crf_max=0.0 / nal_hrd=none / filler=0 / ip_ratio=1.40 / pb_ratio=1.30 / aq=1:1.00
Язык : English
Default : Да
Forced : Нет

Аудио #1
Идентификатор : 2
Формат : AC-3
Формат/Информация : Audio Coding 3
Коммерческое название : Dolby Digital
Идентификатор кодека : A_AC3
Продолжительность : 1 ч. 53 м.
Вид битрейта : Постоянный
Битрейт : 192 Кбит/сек
Каналы : 2 канала
ChannelLayout : L R
Частота : 48,0 КГц
Частота кадров : 31,250 кадров/сек (1536 SPF)
Метод сжатия : С потерями
Размер потока : 156 Мбайт (6%)
Заголовок : Алексей Медведев
Язык : Russian
ServiceKind/String : Complete Main
Default : Да
Forced : Нет

Аудио #2
Идентификатор : 3
Формат : AC-3
Формат/Информация : Audio Coding 3
Коммерческое название : Dolby Digital
Идентификатор кодека : A_AC3
Продолжительность : 1 ч. 53 м.
Вид битрейта : Постоянный
Битрейт : 192 Кбит/сек
Каналы : 2 канала
ChannelLayout : L R
Частота : 48,0 КГц
Частота кадров : 31,250 кадров/сек (1536 SPF)
Метод сжатия : С потерями
Размер потока : 156 Мбайт (6%)
Заголовок : original
Язык : English
ServiceKind/String : Complete Main
Default : Нет
Forced : Нет

Текст
Идентификатор : 4
Формат : UTF-8
Идентификатор кодека : S_TEXT/UTF8
Идентификатор кодека/Информация : UTF-8 Plain Text
Продолжительность : 1 ч. 52 м.
Битрейт : 66 бит/сек
ElementCount : 1605
Размер потока : 54,6 Кбайт (0%)
Заголовок : английские
Язык : English
Default : Нет
Forced : Нет

Меню
00:00:00.000 : en:Chapter 01
00:09:05.125 : en:Chapter 02
00:19:17.250 : en:Chapter 03
00:32:21.291 : en:Chapter 04
00:44:42.666 : en:Chapter 05
00:52:08.750 : en:Chapter 06
01:02:03.250 : en:Chapter 07
01:14:22.208 : en:Chapter 08
01:23:00.083 : en:Chapter 09
01:33:07.875 : en:Chapter 10
01:37:10.208 : en:Chapter 11
01:48:52.583 : en:Chapter 12


Релиз подготовлен:
Релиз группа:

_________________



 Профиль
 
 
Понравилась тема расскажи друзьям!


  • Торрент

Лига джентльменов / The League of Gentlemen (1960) BDRip-AVC by msltel | A.torrent 
Зарегистрирован:  27 янв 2020, 11:29  HASH|6ec9be7757a6640dc86dda915be55f9e1fbc16da| (Google it!)
Статус:  Проверено | admin
Торрент:  Размер: 2.56 ГБ | Скачан: 607 раз | Торрент файл: 13.71 КБ  
Здоровье:   100%
Поделиться:
 
Как качать?
Как качать?
X
Скачайте торрент и откройте его в своем клиенте
uTorrent

скачать программу,
дождитесь окончания загрузки.
* Как смотреть?
Как смотреть?
X

Для работы Magic Player
Вам необходимо установить
Ace Stream P2P Multimedia Plug-in

Установить

Для работы Magic Player
Вам необходимо включить
Ace Stream P2P Multimedia Plug-in

Инструкция
Показать сообщения за:  Поле сортировки  
Начать новую тему Ответить на тему  [ 1 сообщение ] 

   Похожие торренты   Автор   Ответы   Просмотры   Последнее сообщение 
Непрочитанные сообщения Скачать торрент Магнет ссылка Проверено Перейти к первому непрочитанному сообщениюПризрачный патруль / R.I.P.D. (2013) BDRip 1080p by msltel | D, A За каждые 100 байт. аплоада (сидирования) этого торрента начисляется бонус: 1.000

в форуме Фильмы HDRip / BDRIp / 720, 1080, Размер: 8.57 ГБ, Здоровье: 100%

admin

0
40|5

100
530

24 янв 2020, 18:50

admin Перейти к последнему сообщению

Непрочитанные сообщения Скачать торрент Магнет ссылка Проверено Перейти к первому непрочитанному сообщениюДикая Лига [2019, Приключения, боевик, WEB-DLRip | iTunes] За каждые 100 байт. аплоада (сидирования) этого торрента начисляется бонус: 1.000

в форуме Российское кино, Размер: 1.46 ГБ, Здоровье: 100%

admin

0
316|50

544
8653

18 ноя 2019, 18:30

admin Перейти к последнему сообщению

Непрочитанные сообщения Скачать торрент Магнет ссылка Проверено Перейти к первому непрочитанному сообщениюВий (1967) BDRip 720p | US Transfer За каждые 100 байт. аплоада (сидирования) этого торрента начисляется бонус: 1.000

в форуме Фильмы HDRip / BDRIp / 720, 1080, Размер: 3.9 ГБ, Здоровье: 100%

admin

0
40|0

218
530

24 ноя 2019, 15:46

admin Перейти к последнему сообщению

Непрочитанные сообщения Скачать торрент Магнет ссылка Проверено Перейти к первому непрочитанному сообщениюЯ иду искать / Ready or Not (2019) BDRip | L1 За каждые 100 байт. аплоада (сидирования) этого торрента начисляется бонус: 1.000

в форуме Фильмы HDRip / BDRIp / 720, 1080, Размер: 1.46 ГБ, Здоровье: 100%

admin

0
296|224

351
856

28 ноя 2019, 20:57

admin Перейти к последнему сообщению

Непрочитанные сообщения Скачать торрент Магнет ссылка Проверено Перейти к первому непрочитанному сообщениюСоблазн / Sibyl (2019) BDRip | iTunes За каждые 100 байт. аплоада (сидирования) этого торрента начисляется бонус: 1.000

в форуме Фильмы HDRip / BDRIp / 720, 1080, Размер: 746.56 МБ, Здоровье: 100%

admin

0
24|0

179
1782

09 дек 2019, 19:47

admin Перейти к последнему сообщению



Кто сейчас на конференции

Сейчас этот форум просматривают: нет зарегистрированных пользователей и гости: 1


Вы не можете начинать темы
Вы не можете отвечать на сообщения
Вы не можете редактировать свои сообщения
Вы не можете удалять свои сообщения
Вы не можете добавлять вложения

Найти:
Перейти:  
cron
Ресурс не предоставляет электронные версии произведений, а занимается лишь коллекционированием и каталогизацией ссылок, присылаемых и публикуемых на форуме нашими читателями. Если вы являетесь правообладателем какого-либо представленного материала и не желаете чтобы ссылка на него находилась в нашем каталоге, свяжитесь с нами и мы незамедлительно удалим её. Файлы для обмена на трекере предоставлены пользователями сайта, и администрация не несёт ответственности за их содержание. Просьба не заливать файлы, защищенные авторскими правами, а также файлы нелегального содержания!
Информационное сообщение...
Доброго времени суток! Если вы попали на наш портал, советуем задержаться у нас и посмотрель материалы.А лучше всего оставайтесь и делитесь своими файлами со всем народом.Кроме этого вы сможете просмотреть нужный фильм в оригинальном качестве или прослушать музыку.Регистрируйтесь и воспользуйтесь всеми опциями трекера.
ppkBB3cker v.2 © 2008-2014 @ PPK