Начать новую тему Ответить на тему  [ 1 сообщение ] 
Статистика раздачи
Размер|   873.28 МБ    |   915 704 609 байт   
Раздают|   34   Качают|   4      
Последний личер: | 17 дней 23 часа 14 минут 37 секунд назад  | (Google it!)
Автор Сообщение
Сообщение Добавлено: 24 ноя 2019, 15:50 
Ответить с цитатой
Не в сети
Администратор
Администратор
Аватара пользователя
Раздал: 2.31 ГБ
Скачал: 6.13 ГБ
Ратио: 0.377


Зарегистрирован: 01 июл 2016, 17:16
Сообщения: 614
Баллы репутации: 10
За самый скачиваемый релиз
Медали: 4
за участие (1) Создание сайта (1) За 100 релизов (1) за 200 релизов (1)
Технологии счастья (2019) DVB»Скачать торрент

Информация о фильме
Название: Технологии счастья
Год выхода: 2019
Жанр: Документальный, психология
Режиссер: Ольга Дроздова

О фильме:
Результаты самого длительного в истории психологии научного эксперимента под названием "Гарвардское исследование развития взрослых людей", стартовавшего в 1938 году и продолжающегося до сих пор, позволяют ученым утверждать: "Единственное, что на самом деле имеет значение в жизни, это наши отношения с другими людьми". Однако главная проблема сегодняшнего дня состоит в том, что мы стремительно удаляемся от этой, казалось бы, очевидной истины. Социологи и психологи фиксируют, что мы перестали по-настоящему взаимодействовать между собой. Мы лишь имитируем общение и взаимную заинтересованность. О том, как счастливо жить в цифровую эпоху, как сохранять свою индивидуальность, способность творчески мыслить, саму "человечность" в фильме размышляют: психотерапевт Андрей Курпатов, социальный психолог Татьяна Яничева, сексолог Лев Щеглов, филолог Светлана Друговейко-Должанская.


Страна: Россия
Студия: ХОРС-МЕДИА
Продолжительность: 00:38:50
Перевод: Не требуется

Файл
Кодек: AVC/H.264
Качество: DVB
Видео: 720x576@1047x576 (16:9) AVC (H.264) Main@L3.0, ~ 2889 kbps, 25fps
Звук: Русский 48 kHz, MPEG Layer 2, 2 ch, ~192.00 kbps avg
Complete name : F:НаладкиSD-фильмыТехнологии счастья.mkv
Format : Matroska
Format version : Version 4
File size : 873 MiB
Duration : 38 min 50 s
Overall bit rate : 3 143 kb/s
Encoded date : UTC 2019-11-23 14:28:47
Writing application : mkvmerge v6.6.0 ('The Edge Of The In Between') built on Dec 1 2013 17:55:00
Writing library : libebml v1.3.0 + libmatroska v1.4.1

Video
ID : 1
Format : AVC
Format/Info : Advanced Video Codec
Format profile : Main@L3
Format settings : CABAC / 4 Ref Frames
Format settings, CABAC : Yes
Format settings, Reference : 4 frames
Codec ID : V_MPEG4/ISO/AVC
Duration : 38 min 50 s
Bit rate : 2 889 kb/s
Width : 720 pixels
Height : 576 pixels
Display aspect ratio : 16:9
Frame rate mode : Constant
Frame rate : 25.000 FPS
Standard : Component
Color space : YUV
Chroma subsampling : 4:2:0
Bit depth : 8 bits
Scan type : Interlaced
Scan type, store method : Separated fields
Scan order : Top Field First
Bits/(Pixel*Frame) : 0.279
Stream size : 803 MiB (92%)
Default : Yes
Forced : No
Color range : Limited
Color primaries : BT.601 PAL
Transfer characteristics : BT.470 System B/G
Matrix coefficients : BT.470 System B/G

Audio
ID : 2
Format : MPEG Audio
Format version : Version 1
Format profile : Layer 2
Codec ID : A_MPEG/L2
Codec ID/Hint : MP2
Duration : 38 min 50 s
Bit rate mode : Constant
Bit rate : 192 kb/s
Channel(s) : 2 channels
Sampling rate : 48.0 kHz
Compression mode : Lossy
Stream size : 53.3 MiB (6%)
Language : Russian
Default : Yes
Forced : No

_________________
На вопрсы когда, а можно и т.д. не отвечаю!


 Профиль
 
 
Понравилась тема расскажи друзьям!


  • Торрент

Технологии счастья (2019) DVB.torrent 
Зарегистрирован:  24 ноя 2019, 15:50  HASH|a11e126711acdc993e94b16c544f9ae405d8b37a| (Google it!)
Статус:  Проверено | admin
Торрент:  Размер: 873.28 МБ | Скачан: 378 раз | Торрент файл: 18.03 КБ  
Здоровье:   100%
Поделиться:
 
Как качать?
Как качать?
X
Скачайте торрент и откройте его в своем клиенте
uTorrent

скачать программу,
дождитесь окончания загрузки.
* Как смотреть?
Как смотреть?
X

Для работы Magic Player
Вам необходимо установить
Ace Stream P2P Multimedia Plug-in

Установить

Для работы Magic Player
Вам необходимо включить
Ace Stream P2P Multimedia Plug-in

Инструкция
Показать сообщения за:  Поле сортировки  
Начать новую тему Ответить на тему  [ 1 сообщение ] 

   Похожие торренты   Автор   Ответы   Просмотры   Последнее сообщение 
В этой теме нет новых непрочитанных сообщений. Скачать торрент Магнет ссылка Проверено BELOFF [dp] 2019.11.2 (2019) РС | ISO За каждые 100 байт. аплоада (сидирования) этого торрента начисляется бонус: 1.000

в форуме Драйверы, Размер: 8.59 ГБ, Здоровье: 100%

admin

0
15|3

46
325

19 ноя 2019, 21:07

admin Перейти к последнему сообщению

В этой теме нет новых непрочитанных сообщений. Скачать торрент Магнет ссылка Проверено [Android] Zona v1.6.2 [2019/Rus]

в форуме Разные, Размер: 6.02 МБ, Здоровье: 100%

admin

0
5|0

49
71

24 ноя 2019, 15:58

admin Перейти к последнему сообщению

В этой теме нет новых непрочитанных сообщений. Скачать торрент Магнет ссылка Проверено Кино HD 2.4.7 Pro (2019) Android

в форуме Разные, Размер: 11.82 МБ, Здоровье: 100%

admin

0
15|2

39
863

17 ноя 2019, 09:47

admin Перейти к последнему сообщению

В этой теме нет новых непрочитанных сообщений. Скачать торрент Магнет ссылка Проверено Я иду искать / Ready or Not (2019) BDRip | L1 За каждые 100 байт. аплоада (сидирования) этого торрента начисляется бонус: 1.000

в форуме Фильмы HDRip / BDRIp / 720, 1080, Размер: 1.46 ГБ, Здоровье: 100%

admin

0
428|227

108
7076

28 ноя 2019, 20:57

admin Перейти к последнему сообщению

В этой теме нет новых непрочитанных сообщений. Скачать торрент Магнет ссылка Проверено Оно 2 / It Chapter Two (2019) WEB-DLRip от MegaPeer | D За каждые 100 байт. аплоада (сидирования) этого торрента начисляется бонус: 1.000

в форуме Фильмы WEB-DLRip / WEB-DLRip 720 / WEB-DLRip 1080, Размер: 2.18 ГБ, Здоровье: 100%

admin

0
84|4

526
9567

19 ноя 2019, 17:55

admin Перейти к последнему сообщению



Кто сейчас на конференции

Сейчас этот форум просматривают: нет зарегистрированных пользователей и гости: 1


Вы не можете начинать темы
Вы не можете отвечать на сообщения
Вы не можете редактировать свои сообщения
Вы не можете удалять свои сообщения
Вы не можете добавлять вложения

Найти:
Перейти:  
cron
Ресурс не предоставляет электронные версии произведений, а занимается лишь коллекционированием и каталогизацией ссылок, присылаемых и публикуемых на форуме нашими читателями. Если вы являетесь правообладателем какого-либо представленного материала и не желаете чтобы ссылка на него находилась в нашем каталоге, свяжитесь с нами и мы незамедлительно удалим её. Файлы для обмена на трекере предоставлены пользователями сайта, и администрация не несёт ответственности за их содержание. Просьба не заливать файлы, защищенные авторскими правами, а также файлы нелегального содержания!
Информационное сообщение...
Доброго времени суток! Если вы попали на наш портал, советуем задержаться у нас и посмотрель материалы.А лучше всего оставайтесь и делитесь своими файлами со всем народом.Кроме этого вы сможете просмотреть нужный фильм в оригинальном качестве или прослушать музыку.Регистрируйтесь и воспользуйтесь всеми опциями трекера.
ppkBB3cker v.2 © 2008-2014 @ PPK