Сообщения без ответов | Активные темы Непрочитанные сообщения




Начать новую тему Ответить на тему  [ 1 сообщение ] 
Статистика раздачи
Размер|   1.52 ГБ    |   1 632 628 472 байт   
Раздают|   36   Качают|   2      
Последний личер: | 1 месяц 18 дней 22 часа 58 минут 16 секунд назад  | (Google it!)
Автор Сообщение
Непрочитанное сообщениеДобавлено: 12 июл 2019, 00:06 
Не в сети
Администратор
Администратор
Аватара пользователя
Раздал: 4.27 ГБ
Скачал: 6.28 ГБ
Ратио: 0.680


Зарегистрирован: 01 июл 2016, 17:16
Сообщения: 1418
Баллы репутации: 110
За участие в улучшении сайтаЗа участие в улучшении сайта
Медали: 6
за участие (1) Создание сайта (1) За 100 релизов (1) за 200 релизов (1) За 500 релизов (1)
За 1000 релизов (1)
Информация о фильме
Название: Знакомьтесь, ваши предки неандертальцы
Оригинальное название: Neanderthals - Meet Your Ancestors
Год выхода: 2018
Жанр: Документальный, археология, история
Режиссер: Викрам Джаянти

О фильме:
Согласно последним исследованиям, неандертальцы являются нашими далекими предками. Около 2% ДНК большинства людей относится к неандертальскому происхождению - и это продолжает влиять на нас сегодня. Археолог Элла Аль-Шамахи и актер Энди Серкис возвращают доисторических гоминидов к жизни с помощью анимации, обнаруживая некоторые удивительные сходства с современными людьми.




Страна: Великобритания
Студия: ВВС VIXPIX Films, Imaginarium Productions, The Wellcome Trust
Продолжительность: 2 х ~ 00:50:01
Перевод: Профессиональный (двухголосый закадровый) Видеофильм ТВ

Файл
Кодек: AVC/H.264
Качество: DVB
Видео: 720x576@1047x576 (16:9) AVC (H.264) Main@L3.0, ~ 1845 kbps, 25fps
Звук: Русский 48 kHz, MPEG Layer 2, 2 ch, ~192.00 kbps avg

Семпл
Complete name : F:НаладкиSD-фильмыЗнакомьтесь - неандертальцы�1. Знакомьтесь, ваши предки неандертальцы.ts
Format : MPEG-TS
File size : 768 MiB
Duration : 50 min 1 s
Overall bit rate mode : Variable
Overall bit rate : 2 145 kb/s

Video
ID : 401 (0x191)
Menu ID : 2608 (0xA30)
Format : AVC
Format/Info : Advanced Video Codec
Format profile : Main@L3
Format settings : CABAC / 4 Ref Frames
Format settings, CABAC : Yes
Format settings, Reference : 4 frames
Format settings, GOP : M=4, N=28
Codec ID : 27
Duration : 50 min 1 s
Bit rate : 1 845 kb/s
Width : 720 pixels
Height : 576 pixels
Display aspect ratio : 16:9
Frame rate : 25.000 FPS
Standard : Component
Color space : YUV
Chroma subsampling : 4:2:0
Bit depth : 8 bits
Scan type : Interlaced
Scan type, store method : Separated fields
Scan order : Top Field First
Bits/(Pixel*Frame) : 0.178
Stream size : 660 MiB (86%)
Color range : Limited
Color primaries : BT.601 PAL
Transfer characteristics : BT.470 System B/G
Matrix coefficients : BT.470 System B/G

Audio
ID : 402 (0x192)
Menu ID : 2608 (0xA30)
Format : MPEG Audio
Format version : Version 1
Format profile : Layer 2
Codec ID : 3
Duration : 50 min 1 s
Bit rate mode : Constant
Bit rate : 192 kb/s
Channel(s) : 2 channels
Sampling rate : 48.0 kHz
Frame rate : 41.667 FPS (1152 SPF)
Compression mode : Lossy
Stream size : 68.7 MiB (9%)
Language : Russian


 
 
 
 

_________________
На вопрсы когда, а можно и т.д. не отвечаю!



 Профиль
 
Ответить с цитатой  
Понравилась тема расскажи друзьям!


  • Торрент

ВВС: Знакомьтесь, ваши предки неандертальцы / Neanderthals - Meet Your Ancestors [01-02 из 02] (2018) DVB | P2.torrent 
Зарегистрирован:  12 июл 2019, 00:06  HASH|916f26ad2589cec7a290df90f17f1543a1eb09e8| (Google it!)
Статус:  √Проверено | admin
Торрент:  Размер: 1.52 ГБ | Скачан: 1014 раз | Торрент файл: 16.39 КБ  
Здоровье:   100%
Поделиться:
 
Как качать?
Как качать?
X
Скачайте торрент и откройте его в своем клиенте
uTorrent

скачать программу,
дождитесь окончания загрузки.
* Как смотреть?
Как смотреть?
X

Для работы Magic Player
Вам необходимо установить
Ace Stream P2P Multimedia Plug-in

Установить

Для работы Magic Player
Вам необходимо включить
Ace Stream P2P Multimedia Plug-in

Инструкция
Показать сообщения за:  Поле сортировки  
Начать новую тему Ответить на тему  [ 1 сообщение ] 

   Похожие торренты   Автор   Ответы   Просмотры   Последнее сообщение 
Непрочитанные сообщения Скачать торрент Магнет ссылка √Проверено Перейти к первому непрочитанному сообщениюНаталья Александрова - Шаг над пропастью (2018) MP3

в форуме Детективы и криминал, Размер: 483.04 МБ, Здоровье: 100%

admin

0
12|2

18
238

17 окт 2019, 17:56

admin Перейти к последнему сообщению

Непрочитанные сообщения Скачать торрент Магнет ссылка √Проверено Перейти к первому непрочитанному сообщениюОдесса [2018, Драма, WEB-DLRip | iTunes] За каждые 1.52 байт. аплоада (сидирования) этого торрента начисляется бонус: 1.000

в форуме Российское кино, Размер: 1.45 ГБ, Здоровье: 100%

admin

0
5005|499

23
46785

17 окт 2019, 14:12

admin Перейти к последнему сообщению

Непрочитанные сообщения Скачать торрент Магнет ссылка √Проверено Перейти к первому непрочитанному сообщениюМорская звезда / Starfish (2018) WEB-DL 1080p | LakeFilms За каждые 1.52 байт. аплоада (сидирования) этого торрента начисляется бонус: 1.000

в форуме Фильмы WEB-DLRip / WEB-DLRip 720 / WEB-DLRip 1080, Размер: 3.65 ГБ, Здоровье: 100%

admin

0
111|6

20
2292

20 окт 2019, 14:54

admin Перейти к последнему сообщению

Непрочитанные сообщения Скачать торрент Магнет ссылка √Проверено Перейти к первому непрочитанному сообщениюМорская звезда / Starfish (2018) WEB-DLRip | LakeFilms За каждые 1.52 байт. аплоада (сидирования) этого торрента начисляется бонус: 1.000

в форуме Фильмы WEB-DLRip / WEB-DLRip 720 / WEB-DLRip 1080, Размер: 769.46 МБ, Здоровье: 100%

admin

0
101|4

24
1778

20 окт 2019, 14:51

admin Перейти к последнему сообщению

Непрочитанные сообщения Скачать торрент Магнет ссылка √Проверено Перейти к первому непрочитанному сообщениюНаталья Александрова - Тайна Голубиной книги (2018) MP3

в форуме Детективы и криминал, Размер: 545.87 МБ, Здоровье: 100%

admin

0
6|0

20
262

17 окт 2019, 17:59

admin Перейти к последнему сообщению



Кто сейчас на конференции

Сейчас этот форум просматривают: нет зарегистрированных пользователей и гости: 1


Вы не можете начинать темы
Вы не можете отвечать на сообщения
Вы не можете редактировать свои сообщения
Вы не можете удалять свои сообщения
Вы не можете добавлять вложения

Найти:
Перейти: