Начать новую тему Ответить на тему  [ 1 сообщение ] 
Статистика раздачи
Размер|   1.69 ГБ    |   1 817 731 958 байт   
Раздают: 1  [0 байт/сек]   Качают: 0 [0 байт/сек]    
Последний личер: |  назад  | (Google it!)
Автор Сообщение
Непрочитанное сообщение Добавлено: 16 июл 2016, 18:01 
Ответить с цитатой
Не в сети
Администратор
Администратор
Аватара пользователя


Открыть статистику

Раздал: 4.83 ТБ
Скачал: 6.65 ГБ
Ратио: 1743.753


Зарегистрирован: 01 июл 2016, 17:16
Сообщения: 2371
Баллы репутации: 10
За самый скачиваемый релиз
Медали: 8
за участие (1) Создание сайта (1) За 100 релизов (1) за 200 релизов (1)
За 500 релизов (1) За 1000 релизов (1) Кандидат на повышение (1) Подписчику в группе ВК (1)
Вечер с Владимиром Соловьевым. Спец. выпуск (15.07.2016) SATRip 

Телекомпания: Россия
Жанр: Телепередача

Ведущий: Владимир Соловьёв



"Мы ставили задачу сделать программу для умного, неравнодушного зрителя, которая позволит обсуждать актуальные проблемы в разных форматах: от интервью "один на один" до "круглого стола". Надеемся, она будет такой же острой, как политическое ток-шоу "Поединок". Но если в "Поединке" сталкиваются две полярные точки зрения, то здесь мы намерены представить более широкий спектр мнений: ведь в обществе обсуждается множество тем, которые вызывают не только однозначные реакции", - сказал автор проекта Владимир Соловьев.



Продолжительность: ~ 02:00:43
Качество видео: SATRip
Субтитры: Отсутствуют

Видео: Xvid, 704x448, ~1818 Кбит/сек
Аудио: AC3, 2 ch, 192 Кбит/сек, CBR
Код:
Общее
Полное имя                               : F:\видео\фильмы\Воскресный вечер\Вечер с Владимиром Соловьевым (2016.07.15).avi
Формат                                   : AVI
Формат/Информация                        : Audio Video Interleave
Профиль формата                          : OpenDML
Размер файла                             : 1,69 Гбайт
Продолжительность                        : 2 ч. 0 м.
Общий поток                              : 2010 Кбит/сек

Видео
Идентификатор                            : 0
Формат                                   : MPEG-4 Visual
Профиль формата                          : Advanced Simple@L5
Параметр BVOP формата                    : 1
Параметр QPel формата                    : Нет
Параметр GMC формата                     : Без точки перехода
Параметр матрицы формата                 : Default (H.263)
Идентификатор кодека                     : XVID
Идентификатор кодека/Подсказка           : XviD
Продолжительность                        : 2 ч. 0 м.
Битрейт                                  : 1806 Кбит/сек
Ширина                                   : 704 пикселя
Высота                                   : 448 пикселей
Соотношение сторон                       : 16:10
Частота кадров                           : 25,000 кадров/сек
Цветовое пространство                    : YUV
Субдискретизация насыщенности            : 4:2:0
Битовая глубина                          : 8 бит
Тип развёртки                            : Прогрессивная
Метод сжатия                             : С потерями
Бит/(Пиксели*Кадры)                      : 0.229
Размер потока                            : 1,52 Гбайт (90%)
Библиотека кодирования                   : XviD 1.2.1 (UTC 2008-12-04)

Аудио
Идентификатор                            : 1
Формат                                   : AC-3
Формат/Информация                        : Audio Coding 3
Расширение режима                        : CM (complete main)
Параметр Endianness формата              : Big
Идентификатор кодека                     : 2000
Продолжительность                        : 2 ч. 0 м.
Вид битрейта                             : Постоянный
Битрейт                                  : 192 Кбит/сек
Каналы                                   : 2 канала
Расположение каналов                     : Front: L R
Частота                                  : 48,0 КГц
Частота кадров                           : 31,250 кадров/сек (1536 spf)
Метод сжатия                             : С потерями
Размер потока                            : 166 Мбайт (10%)
Выравнивание                             : Соединение по промежуткам
Продолжительность промежутка             : 32  мс. (0,80 видеокадр)
[img1]http://funkyimg.com/i/2eban.png[/img1][img1]http://funkyimg.com/i/2ebap.png[/img1][img1]http://funkyimg.com/i/2ebar.png[/img1][img1]http://funkyimg.com/i/2ebat.png[/img1]

_________________



 Профиль
 
 
Понравилась тема расскажи друзьям!


Вечер с Владимиром Соловьевым. Спец. выпуск (15.07.2016) SATRip.torrent 
Зарегистрирован:  16 июл 2016, 18:01  HASH|99ebda9fae02170376cb0c829a991ac0aa98abaa| (Google it!)
Статус:  √ Проверен  хакер (16 июл 2016, 18:01)
Торрент:  Размер: 1.69 ГБ | Скачан: 0 раз | Торрент файл: 17.46 КБ  
Приватный:    Нет (DHT включён)
Здоровье:   100%
Поделиться:
 
Как качать?
Как качать?
X
Скачайте торрент и откройте его в своем клиенте
uTorrent

скачать программу,
дождитесь окончания загрузки.
* Как смотреть?
Как смотреть?
X

Для работы Magic Player
Вам необходимо установить
Ace Stream P2P Multimedia Plug-in

Установить

Для работы Magic Player
Вам необходимо включить
Ace Stream P2P Multimedia Plug-in

Инструкция
Показать сообщения за:  Поле сортировки  
Начать новую тему Ответить на тему  [ 1 сообщение ] 

   Похожие торренты   Автор   Ответы   Просмотры   Последнее сообщение 
Непрочитанные сообщения Скачать торрент Магнет ссылка √ Проверен Перейти к первому непрочитанному сообщениюШоу Елены Степаненко "Еще не вечер" [22/05/2020, Тв-Шоу, SATRip] За каждые 1.69 байт. аплоада (сидирования) этого торрента начисляется бонус: 2.000

в форуме Юмор, Размер: 797.15 МБ, Здоровье: 100%

хакер

0
6|0

13
141

23 май 2020, 00:34

хакер Перейти к последнему сообщению

Непрочитанные сообщения Скачать торрент Магнет ссылка √ Проверен Перейти к первому непрочитанному сообщениюСолдатки [1 сезон: 1-10 выпуск из 20] (2020) SATRip За каждые 1.69 байт. аплоада (сидирования) этого торрента начисляется бонус: 2.000

в форуме Реалити шоу, Размер: 5.04 ГБ, Здоровье: 60%

K15

0
6|10

89
492

26 апр 2020, 21:09

K15 Перейти к последнему сообщению

Непрочитанные сообщения Скачать торрент Магнет ссылка R пополняемая Перейти к первому непрочитанному сообщениюГолос. Дети / Сезон 7 Выпуск 6 [20/03/2020, Музыкальное Шоу, SATRip] За каждые 1.69 байт. аплоада (сидирования) этого торрента начисляется бонус: 2.000

в форуме Тв шоу, Размер: 1.07 ГБ, Здоровье: 100%

хакер

0
5|0

158
538

20 мар 2020, 18:25

хакер Перейти к последнему сообщению

Непрочитанные сообщения Скачать торрент Магнет ссылка √ Проверен Перейти к первому непрочитанному сообщениюВечер с Беверли Лафф Линн / An Evening with Beverly Luff Linn (Джим Хоскин) [2018, Комедия, криминал, BDRip 720p] [MVO] [iTunes] За каждые 1.69 байт. аплоада (сидирования) этого торрента начисляется бонус: 2.000

в форуме Фильмы WEB-DLRip / WEB-DLRip 720 / WEB-DLRip 1080, Размер: 5.01 ГБ, Здоровье: 100%

K15

0
11|1

694
136

09 апр 2020, 18:48

K15 Перейти к последнему сообщению

Непрочитанные сообщения Скачать торрент Магнет ссылка √ Проверен Перейти к первому непрочитанному сообщениюГризли и лемминги.Grizzy and the Lemmings (2016-2019). SATRip За каждые 1.69 байт. аплоада (сидирования) этого торрента начисляется бонус: 2.000

в форуме Мульт сериалы, Размер: 15.65 ГБ, Здоровье: 0%

хакер

0
0|0

360
0

12 фев 2020, 19:28

хакер Перейти к последнему сообщению



Кто сейчас на конференции

Сейчас этот форум просматривают: нет зарегистрированных пользователей и гости: 1


Вы не можете начинать темы
Вы не можете отвечать на сообщения
Вы не можете редактировать свои сообщения
Вы не можете удалять свои сообщения
Вы не можете добавлять вложения

Найти:
Перейти:  
cron
!ВНИМАНИЕ!

Сайт не распространяет и не хранит электронные версии произведений, а лишь предоставляет доступ к создаваемому пользователями каталогу ссылок на торрент-файлы, которые содержат только списки хеш-сумм, убедительная просьба с жалобами обращаться напрямую к пользователю.
The site does not extend and does not store electronic(digital) versions of products, and only gives access to a reference catalogue created by users on torrent-files which contain only lists of the hash-sums, the earnest entreaty, with complaints(abuse) to access directly to the user.
cron
Информационное сообщение...
Доброго времени суток! Если вы попали на наш портал, советуем задержаться у нас и посмотрель материалы.А лучше всего оставайтесь и делитесь своими файлами со всем народом.Кроме этого вы сможете просмотреть нужный фильм в оригинальном качестве или прослушать музыку.Регистрируйтесь и воспользуйтесь всеми опциями трекера.
ppkBB3cker v.2 © 2008-2014 @ PPK