Очень страшное кино 3 / Scary Movie 3 (2003) BDRip-AVC от NNM-CLUB | D,P,P2,A | Unrated Cut

DL-List and Torrent activity [Update ]
Size:  2.78 GB   |    Registered:  5 years 7 months   |    Completed:  27 times

Seeder not seen: Never

Leechers:  172  [  0 KB/s  ]  
 
     
 
 
 
Author Message

Иваныч ®

Gender: Male

Longevity: 5 years 8 months

Posts: 8227

Наличие запрета:


Карма  175 

Location: Россия,Курган



: 19 ()

Активный релизер  (150 релизов) (1) Дизайн (1) От администрации (1) За внесенный вклад в развитие сайта (1)
Активный релизер  (50 релизов) (1) Техпддержка (1) Активный релизер  (100 релизов) (1) Активный релизер  (250 и более релизов) (1)
Активисту (1) Активный релизер (500 релизов) (1) Помощь (1) Активный релизер  (3000 релизов) (1)

Post 18-Dec-2015 12:19

[Quote]

Очень страшное кино 3 / Scary Movie 3 (2003) BDRip - Русское название: Очень страшное кино 3
Оригинальное название: Scary Movie 3
Год выпуска: 2003
Производство: США, Канада, Brad Grey Pictures, Dimension Films
Жанр: Комедия
Режиссер: Дэвид Цукер
Актеры: Памела Андерсон, Дженни МакКарти, Марни Энг, Чарли Шин, Саймон Рекс, Джина Баллард, Джереми Пивен, Анна Фэрис, Тимоти Стэк, Элейн Климашевски, Дайан Климашевски, Камрин Менхейм, Дрю Микуска, Реджина Холл, Даррел Хэммонд, Энтони Андерсон
Описание:
Журналистка Синди Кэмпбелл охвачена желанием сделать скандальный репортаж о каком-нибудь мировом заговоре и открыть самые секретные материалы! Кто ищет, тот всегда найдёт: вскоре Синди становится свидетельницей необъяснимых явлений. На Землю вот-вот высадится десант зловещих инопланетян, на полях появились странные концентрические круги, некий Избранный пророчит нехорошее всему человечеству, дети со странными глазами пугают взрослых, под угрозой жизнь самого Президента, а амбициозные белые рэперы совершили подозрительный прорыв в мире шоу-бизнеса! Зло наступает со всех сторон, и Синди должна сражаться, чтобы спасти мир еще раз!

Релиз от: FAGOT100 (NNM-CLUB)
Продолжительность: 01:25:41
Качество видео: BDRip
Перевод: Дублированный, профессиональный (многоголосый, закадровый), профессиональный (двухголосый, закадровый), авторский (одноголосый, закадровый)
Примечание: Версия фильма Unrated, есть места без перевода.
Язык субтитров: Английский
Вид субтитров: Вшитые, отключаемые
Видео: AVC, 1024x556 (16:9), 23.976 fps, 3 207 Kbps (0.235 bit/pixel)
Аудио #1: AC-3, 48.0 KHz, 6 ch, 384 Kbps, CBR (Russian) - дублированный
Аудио #2: AC-3, 48.0 KHz, 2 ch, 192 Kbps, CBR (Russian) - многоголосый
Аудио #3: AC-3, 48.0 KHz, 2 ch, 192 Kbps, CBR (Russian) - двухголосый
Аудио #4: AC-3, 48.0 KHz, 2 ch, 192 Kbps, CBR (Russian) - авторский А.Карповский
Аудио #5: AC-3, 48.0 KHz, 6 ch, 384 Kbps, CBR (English) - оригинал

Mediainfo:

Формат : Matroska
Версия формата : Version 2
Размер файла : 2,78 Гбайт
Продолжительность : 1 ч. 25 м.
Общий поток : 4643 Кбит/сек
Дата кодирования : UTC 2015-12-18 03:12:31
Программа кодирования : mkvmerge v5.3.0 ('I could have danced') built on Feb 9 2012 10:38:07
Библиотека кодирования : libebml v1.2.3 + libmatroska v1.3.0
Attachment : Yes
Видео
Идентификатор : 1
Формат : AVC
Формат/Информация : Advanced Video Codec
Профиль формата : High@L4.1
Параметр CABAC формата : Да
Параметр ReFrames формата : 10 кадров
Идентификатор кодека : V_MPEG4/ISO/AVC
Продолжительность : 1 ч. 25 м.
Битрейт : 3207 Кбит/сек
Ширина : 1024 пикселя
Высота : 556 пикселей
Соотношение сторон : 1,85:1
Режим частоты кадров : Постоянный
Частота кадров : 23,976 кадра/сек
Цветовое пространство : YUV
Субдискретизация насыщенности : 4:2:0
Битовая глубина : 8 бит
Тип развёртки : Прогрессивная
Бит/(Пиксели*Кадры) : 0.235
Размер потока : 1,92 Гбайт (69%)
Библиотека кодирования : x264 core 146 r2538 121396c
Настройки программы : cabac=1 / ref=10 / deblock=1:-3:-3 / analyse=0x3:0x133 / me=umh / subme=11 / psy=1 / psy_rd=1.00:0.15 / mixed_ref=1 / me_range=32 / chroma_me=1 / trellis=2 / 8x8dct=1 / cqm=0 / deadzone=21,11 / fast_pskip=0 / chroma_qp_offset=-3 / threads=2 / lookahead_threads=2 / sliced_threads=0 / nr=0 / decimate=0 / interlaced=0 / bluray_compat=0 / constrained_intra=0 / bframes=8 / b_pyramid=2 / b_adapt=2 / b_bias=0 / direct=3 / weightb=1 / open_gop=0 / weightp=2 / keyint=240 / keyint_min=23 / scenecut=40 / intra_refresh=0 / rc=crf / mbtree=0 / crf=18.0 / qcomp=0.60 / qpmin=0 / qpmax=69 / qpstep=4 / ip_ratio=1.40 / pb_ratio=1.30 / aq=2:0.70
Default : Да
Forced : Нет
Аудио #1
Идентификатор : 2
Формат : AC-3
Формат/Информация : Audio Coding 3
Расширение режима : CM (complete main)
Параметр Endianness формата : Big
Идентификатор кодека : A_AC3
Продолжительность : 1 ч. 25 м.
Вид битрейта : Постоянный
Битрейт : 384 Кбит/сек
Каналы : 6 каналов
Расположение каналов : Front: L C R, Side: L R, LFE
Частота : 48,0 КГц
Битовая глубина : 16 бит
Метод сжатия : С потерями
Задержка видео : 1 с. 0 мс.
Размер потока : 235 Мбайт (8%)
Заголовок : Дубляж
Язык : Russian
Default : Да
Forced : Нет
Аудио #2
Идентификатор : 3
Формат : AC-3
Формат/Информация : Audio Coding 3
Расширение режима : CM (complete main)
Параметр Endianness формата : Big
Идентификатор кодека : A_AC3
Продолжительность : 1 ч. 25 м.
Вид битрейта : Постоянный
Битрейт : 192 Кбит/сек
Каналы : 2 канала
Расположение каналов : Front: L R
Частота : 48,0 КГц
Битовая глубина : 16 бит
Метод сжатия : С потерями
Задержка видео : 1 с. 0 мс.
Размер потока : 118 Мбайт (4%)
Заголовок : Многоголосый
Язык : Russian
Default : Нет
Forced : Нет
Аудио #3
Идентификатор : 4
Формат : AC-3
Формат/Информация : Audio Coding 3
Расширение режима : CM (complete main)
Параметр Endianness формата : Big
Идентификатор кодека : A_AC3
Продолжительность : 1 ч. 25 м.
Вид битрейта : Постоянный
Битрейт : 192 Кбит/сек
Каналы : 2 канала
Расположение каналов : Front: L R
Частота : 48,0 КГц
Битовая глубина : 16 бит
Метод сжатия : С потерями
Задержка видео : 1 с. 0 мс.
Размер потока : 118 Мбайт (4%)
Заголовок : Двухголосый
Язык : Russian
Default : Нет
Forced : Нет
Аудио #4
Идентификатор : 5
Формат : AC-3
Формат/Информация : Audio Coding 3
Расширение режима : CM (complete main)
Параметр Endianness формата : Big
Идентификатор кодека : A_AC3
Продолжительность : 1 ч. 25 м.
Вид битрейта : Постоянный
Битрейт : 192 Кбит/сек
Каналы : 2 канала
Расположение каналов : Front: L R
Частота : 48,0 КГц
Битовая глубина : 16 бит
Метод сжатия : С потерями
Задержка видео : 1 с. 0 мс.
Размер потока : 118 Мбайт (4%)
Заголовок : Карповский
Язык : Russian
Default : Нет
Forced : Нет
Аудио #5
Идентификатор : 6
Формат : AC-3
Формат/Информация : Audio Coding 3
Расширение режима : CM (complete main)
Параметр Endianness формата : Big
Идентификатор кодека : A_AC3
Продолжительность : 1 ч. 25 м.
Вид битрейта : Постоянный
Битрейт : 384 Кбит/сек
Каналы : 6 каналов
Расположение каналов : Front: L C R, Side: L R, LFE
Частота : 48,0 КГц
Битовая глубина : 16 бит
Метод сжатия : С потерями
Размер потока : 235 Мбайт (8%)
Default : Нет
Forced : Нет
Текст
Идентификатор : 7
Формат : PGS
Режим смешивания : zlib
Идентификатор кодека : S_HDMV/PGS
Идентификатор кодека/Информация : The same subtitle format used on BDs/HD-DVDs
Язык : English
Default : Нет
Forced : Нет

Скриншоты


Сейчас вы смотрите Очень страшное кино 3 / Scary Movie 3 (2003) BDRip-AVC от NNM-CLUB | D,P,P2,A | Unrated Cut,не забываем оставлять комментарии!
Очень страшное кино 3 / Scary Movie 3 (2003) BDRip-AVC от NNM-CLUB | D,P,P2,A | Unrated Cut [mytorrnado.ru].t2512.torrent 
Torrent: Registered [ 2015-12-18 12:19 ] · A3ED991D1FC1A89FB66F53104F12EB07B6A30BCE Google it!

Download .torrent

15 KB

Status: checked
Completed: 27 times
Тип торрента:  Leeh: 172    
Size: 2.78 GB
Поделиться:
FAQ:
 
Как качать?
Как качать?
X
Скачайте торрент и откройте его в своем клиенте
uTorrent

скачать программу,
дождитесь окончания загрузки.
Если торрент закрыт? Инстркуция.
* Как смотреть?
Как смотреть?
X

Для работы Magic Player
Вам необходимо установить
Ace Stream P2P Multimedia Plug-in

Установить

Для работы Magic Player Вам необходимо включить
Ace Stream P2P Multimedia Plug-in

Инструкция
terms.php
Похожие темы




Запрещено категорически:
» Развязывать разборки (для этого есть ЛС)
» Оставлять комментарии, не относящиеся к содержанию материала.
» Добавлять спам, рекламу флуд..
К спаму относится:
1. Реклама любого направления.
2. Ссылки на сторонние ресурсы рекламного характера.
3. Ссылки на ресурсы порнографического направления.
4. Сылки на блоги и им подбным контeнтам.
» Запрещено оскорбление администрации, модераторов и пользователей.
» Часто писать с вкл. Caps Lock
»За нарушение правил бан или отключение без объяснений.
Уважайте чужой труд!

Правила могут дополняться и изменяться. С уважением Администрация.
[Profile] [PM]
Display posts    
Reply to topic

Current time is: 01-Aug 16:46

All times are UTC + 5



You cannot post new topics in this forum
You cannot reply to topics in this forum
You cannot edit your posts in this forum
You cannot delete your posts in this forum
You cannot vote in polls in this forum
You cannot attach files in this forum
You can download files in this forum










!ATTENTION!
The site does not give electronic versions of products, and is engaged only in a collecting and cataloguing of the references sent and published at a forum by our readers. If you are the legal owner of any submitted material and do not wish that the reference to it was in our catalogue, contact us and we shall immediately remove her. Files for an exchange on tracker are given by users of a site, and the administration does not bear the responsibility for their maintenance. The request to not fill in the files protected by copyrights, and also files of the illegal maintenance!