Голубая сталь / Blue Steel (1989) BDRip от New-Team | Р2

DL-List and Torrent activity [Update ]
Size:  745 MB   |    Registered:  5 years 8 months   |    Completed:  24 times
Seeders:  16  [  0 KB/s  ]   Leechers:  11  [  0 KB/s  ]  
 
     
 
 
Author Message

Иваныч ®

Gender: Male

Longevity: 5 years 8 months

Posts: 8217

Наличие запрета:


Карма  175 

Location: Россия,Курган



: 19 ()

Активисту (1) От администрации (1) Активный релизер  (3000 релизов) (1) Реализация решений (1)
От администрации (1) Дизайн (1) Активный релизер  (250 и более релизов) (1) Активному релизеру (5000 раздач) (1)
За внесенный вклад в развитие сайта (1) Активный релизер  (150 релизов) (1) Активный релизер  (2000 релизов) (1) Активный релизер (500 релизов) (1)

Post 17-Nov-2015 11:02

[Quote]

Страна: США
Производство: Lightning Pictures, Mack-Taylor Productions, Precision Films
Жанр: триллер, драма, криминал
Год выпуска: 1989
Продолжительность: 01:41:53
Перевод: Профессиональный (двухголосый закадровый)
Оригинальная аудиодорожка: нет
Cубтитры: нет
Режиссер: Кэтрин Бигелоу / Kathryn Bigelow
В ролях:
Джейми Ли Кёртис, Рон Сильвер, Клэнси Браун, Элизабет Пенья, Луиз Флетчер, Филип Боско, Кевин Данн, Ричард Дженкинс, Маркус Флэннаган, Мэри Мара, Скипп Линч, Майк Ходж, Майк Старр, Крис Уокер, Том Сайзмор...
Описание:
Офицер полиции Миган только что закончила специальную полицейскую школу. И в ходе первого же дежурства револьвер грабителя, застреленного ею «по всем правилам», случайно попадает в руки финансового брокера Юджина. В связи с исчезновением важнейшей улики возбуждается расследование «проступка» Миган, а в городе начинается серия убийств, связанных с ее именем…- -Исходник: Blu-ray 1080p
Тип релиза: BDRip
Контейнер: AVI
Видео: 688x368 (1,85:1), 23,976 fps, XviD ~ 885 kbps avg, 0.146 bit/pixel
Аудио: 48 kHz, MP3 2.0, 128 kbps
Раздача от:

MediaInfo

Общее
Полное имя : Blue.Steel.1989.BDRip-745_[New-team]_by_AVP_Studio.avi
Формат : AVI
Формат/Информация : Audio Video Interleave
Размер файла : 745 Мбайт
Продолжительность : 1 ч. 41 м.
Общий поток : 1022 Кбит/сек
Программа кодирования : VirtualDubModRus 1.5.10.2 (build 2542/release)
Библиотека кодирования : VirtualDubMod build 2542/release
Видео
Идентификатор : 0
Формат : MPEG-4 Visual
Профиль формата : Advanced Simple@L5
Параметр BVOP формата : 1
Параметр QPel формата : Нет
Параметр GMC формата : Без точки перехода
Параметр матрицы формата : Выборочная
Идентификатор кодека : XVID
Идентификатор кодека/Подсказка : XviD
Продолжительность : 1 ч. 41 м.
Битрейт : 885 Кбит/сек
Ширина : 688 пикселей
Высота : 368 пикселей
Соотношение сторон : 1,85:1
Частота кадров : 23,976 кадра/сек
Цветовое пространство : YUV
Субдискретизация насыщенности : 4:2:0
Битовая глубина : 8 бит
Тип развёртки : Прогрессивная
Метод сжатия : С потерями
Бит/(Пиксели*Кадры) : 0.146
Размер потока : 645 Мбайт (87%)
Библиотека кодирования : XviD 73
Аудио
Идентификатор : 1
Формат : MPEG Audio
Версия формата : Version 1
Профиль формата : Layer 3
Идентификатор кодека : 55
Идентификатор кодека/Подсказка : MP3
Продолжительность : 1 ч. 41 м.
Вид битрейта : Постоянный
Битрейт : 128 Кбит/сек
Каналы : 2 канала
Частота : 48,0 КГц
Метод сжатия : С потерями
Размер потока : 93,3 Мбайт (13%)
Выравнивание : Соединение по промежуткам
Продолжительность промежутка : 42 мс. (1,00 видеокадр)
Время предзагрузки промежутка : 504 мс.
Библиотека кодирования : LAME3.99r
Настройки программы : -m s -V 4 -q 2 -lowpass 17 -b 128

Скриншоты

Сейчас вы смотрите Голубая сталь / Blue Steel (1989) BDRip от New-Team | Р2,не забываем оставлять комментарии!
Голубая сталь / Blue Steel (1989) BDRip от New-Team | Р2 [mytorrnado.ru].t1032.torrent 
Torrent: Registered [ 2015-11-17 11:02 ] · C0CE4704AD6F68F4A3DEECB8AAC2D0630D1FB122 Google it!

Download .torrent

15 KB

Status: checked
Completed: 24 times
Тип торрента: Публичный  - Seed: 16;  Leeh: 11    
Size: 745 MB
Поделиться:
FAQ:
 
Как качать?
Как качать?
X
Скачайте торрент и откройте его в своем клиенте
uTorrent

скачать программу,
дождитесь окончания загрузки.
Если торрент закрыт? Инстркуция.
* Как смотреть?
Как смотреть?
X

Для работы Magic Player
Вам необходимо установить
Ace Stream P2P Multimedia Plug-in

Установить

Для работы Magic Player Вам необходимо включить
Ace Stream P2P Multimedia Plug-in

Инструкция
terms.php
Похожие темы




Запрещено категорически:
» Развязывать разборки (для этого есть ЛС)
» Оставлять комментарии, не относящиеся к содержанию материала.
» Добавлять спам, рекламу флуд..
К спаму относится:
1. Реклама любого направления.
2. Ссылки на сторонние ресурсы рекламного характера.
3. Ссылки на ресурсы порнографического направления.
4. Сылки на блоги и им подбным контeнтам.
» Запрещено оскорбление администрации, модераторов и пользователей.
» Часто писать с вкл. Caps Lock
»За нарушение правил бан или отключение без объяснений.
Уважайте чужой труд!

Правила могут дополняться и изменяться. С уважением Администрация.
[Profile] [PM]
Display posts    
Reply to topic

Current time is: 29-Jul 17:30

All times are UTC + 5



You cannot post new topics in this forum
You cannot reply to topics in this forum
You cannot edit your posts in this forum
You cannot delete your posts in this forum
You cannot vote in polls in this forum
You cannot attach files in this forum
You can download files in this forum










!ATTENTION!
The site does not give electronic versions of products, and is engaged only in a collecting and cataloguing of the references sent and published at a forum by our readers. If you are the legal owner of any submitted material and do not wish that the reference to it was in our catalogue, contact us and we shall immediately remove her. Files for an exchange on tracker are given by users of a site, and the administration does not bear the responsibility for their maintenance. The request to not fill in the files protected by copyrights, and also files of the illegal maintenance!