Пятый элемент / The Fifth Element (1997) BDRip 720p | D | Mastered in 4K

DL-List and Torrent activity [Update ]
Size:  7.76 GB   |    Registered:  5 years 8 months   |    Completed:  54 times
Seeders:  2  [  0 KB/s  ]   Leechers:  46  [  0 KB/s  ]  
 
     
 
 
 
Author Message

Иваныч ®

Gender: Male

Longevity: 5 years 8 months

Posts: 8217

Наличие запрета:


Карма  175 

Location: Россия,Курган



: 19 ()

Активный релизер  (50 релизов) (1) Активный релизер  (200 релизов) (1) Дизайн (1) За внесенный вклад в развитие сайта (1)
Техпддержка (1) Активный релизер  (100 релизов) (1) От администрации (1) Активный релизер  (2000 релизов) (1)
Активный релизер (500 релизов) (1) Активисту (1) От администрации (1) Активный релизер  (250 и более релизов) (1)

Post 17-Nov-2015 19:39

[Quote]

Информация о фильме
Название: Пятый элемент
Оригинальное: The Fifth Element
Год выхода: 1997
Выпущено: Gaumont
Страна: Франция
Жанр: фантастика, боевик, триллер, комедия
Продолжительность: 02:06:34
Перевод: Дублированный (лицензия BD-RUS - "Амальгама") + Дублированный (кинотеатральный - "НТВ-Профит")
Режиссер: Люк Бессон
В ролях: Брюс Уиллис, Милла Йовович, Гари Олдман, Иэн Холм, Крис Такер, Люк Перри, Брайон Джеймс, Томми Листер, Ли Эванс, Чарли Крид-Майлз, Трики, Джон Невилл, Джон Блузал, Матьё Кассовиц, Кристофер Фэйрбэнк, Ким Чан, Ричард Лиф, Джули Т. Уоллес, Эл Мэтьюз, Майвенн Ле Беско, Джон Беннет, Иван Хенг, Сонита Генри, Тим МакМуллан, Хон Пинг Тэнг, Джордж Кхан, Джон Хьюз
-Сюжет фильма
Каждые пять тысяч лет открываются двери между измерениями и темные силы стремятся нарушить существующую гармонию. Каждые пять тысяч лет Вселенной нужен герой, способный противостоять этому злу. XXIII век. Нью-йоркский таксист Корбен Даллас должен решить глобальную задачу - спасение всего рода человеческого. Зло в виде раскаленной массы, наделенной интеллектом, надвигается на Землю. Победить его можно, только лишь собрав воедино четыре элемента (они же стихии - земля, вода, воздух и огонь) и добавив к ним загадочный пятый элемент.-Файл
Кодек: x264
Формат: MKV
Качество: BDRip 720p (Источник: Blu-ray)
Видео: MPEG-4 AVC 1280x536 pix, 23.976 fps, 7102 kbps, 0.432 Bits/Pixel
Аудио I: Dolby Digital 5.1 ch, 48 kHz, 640 kbps (Rus)
Аудио II: Dolby Digital 5.1 ch, 48 kHz, 448 kbps (Rus)
Аудио III: Dolby Digital 5.1 ch, 48 kHz, 640 kbps (Eng)
Субтитры: SRT Русские, Английские (полные, SDH)
Меню: Сохранены оригинальные чаптеры Blu-ray

MI & x264

x264 [info]: frame I:1712 Avg QP:16.40 size:132498
x264 [info]: frame P:36201 Avg QP:18.92 size: 65078
x264 [info]: frame B:143191 Avg QP:21.38 size: 28757
x264 [info]: consecutive B-frames: 1.9% 1.7% 4.7% 18.6% 18.1% 34.1% 8.8% 7.4% 3.2% 1.5%-General
Unique ID : 234511954077289958501230770039757027537 (0xB06D5C060E943430A7B0574B9EF938D1)
Format : Matroska
Format version : Version 2
File size : 7.76 GiB
Duration : 2h 5mn
Overall bit rate : 8 827 Kbps
Movie name : Пятый элемент (1997) BDRip (720p)
Encoded date : UTC 2015-11-16 11:22:52
Writing application : mkvmerge v5.8.0 ('No Sleep / Pillow') built on Sep 2 2012 15:37:04
Writing library : libebml v1.2.3 + libmatroska v1.3.0
Video
ID : 1
Format : AVC
Format/Info : Advanced Video Codec
Format profile : High@L4.1
Format settings, CABAC : Yes
Format settings, ReFrames : 9 frames
Codec ID : V_MPEG4/ISO/AVC
Duration : 2h 5mn
Bit rate : 7 102 Kbps
Width : 1 280 pixels
Height : 536 pixels
Display aspect ratio : 2.40:1
Frame rate mode : Constant
Frame rate : 23.976 fps
Color space : YUV
Chroma subsampling : 4:2:0
Bit depth : 8 bits
Scan type : Progressive
Bits/(Pixel*Frame) : 0.432
Stream size : 6.09 GiB (78%)
Title : Release by Alex260680
Writing library : x264 core 148 r2597 e86f3a1
Encoding settings : cabac=1 / ref=9 / deblock=1:-3:-3 / analyse=0x3:0x133 / me=umh / subme=11 / psy=1 / psy_rd=1.10:0.00 / mixed_ref=1 / me_range=32 / chroma_me=1 / trellis=2 / 8x8dct=1 / cqm=0 / deadzone=21,11 / fast_pskip=0 / chroma_qp_offset=-2 / threads=6 / lookahead_threads=1 / sliced_threads=0 / nr=0 / decimate=0 / interlaced=0 / bluray_compat=0 / constrained_intra=0 / bframes=9 / b_pyramid=2 / b_adapt=2 / b_bias=0 / direct=3 / weightb=1 / open_gop=0 / weightp=2 / keyint=240 / keyint_min=23 / scenecut=40 / intra_refresh=0 / rc=full2pass / mbtree=0 / bitrate=7102 / ratetol=1.0 / qcomp=0.60 / qpmin=0 / qpmax=69 / qpstep=4 / cplxblur=20.0 / qblur=0.5 / ip_ratio=1.40 / pb_ratio=1.30 / aq=1:0.80
Language : English
Default : Yes
Forced : No
Audio #1
ID : 2
Format : AC-3
Format/Info : Audio Coding 3
Mode extension : CM (complete main)
Format settings, Endianness : Big
Codec ID : A_AC3
Duration : 2h 5mn
Bit rate mode : Constant
Bit rate : 640 Kbps
Channel(s) : 6 channels
Channel positions : Front: L C R, Side: L R, LFE
Sampling rate : 48.0 KHz
Bit depth : 16 bits
Compression mode : Lossy
Stream size : 576 MiB (7%)
Title : DUB (Амальгама)
Language : Russian
Default : Yes
Forced : No
Audio #2
ID : 3
Format : AC-3
Format/Info : Audio Coding 3
Mode extension : CM (complete main)
Format settings, Endianness : Big
Codec ID : A_AC3
Duration : 2h 5mn
Bit rate mode : Constant
Bit rate : 448 Kbps
Channel(s) : 6 channels
Channel positions : Front: L C R, Side: L R, LFE
Sampling rate : 48.0 KHz
Bit depth : 16 bits
Compression mode : Lossy
Stream size : 403 MiB (5%)
Title : DUB (НТВ-Профит)
Language : Russian
Default : No
Forced : No
Audio #3
ID : 4
Format : AC-3
Format/Info : Audio Coding 3
Mode extension : CM (complete main)
Format settings, Endianness : Big
Codec ID : A_AC3
Duration : 2h 5mn
Bit rate mode : Constant
Bit rate : 640 Kbps
Channel(s) : 6 channels
Channel positions : Front: L C R, Side: L R, LFE
Sampling rate : 48.0 KHz
Bit depth : 16 bits
Compression mode : Lossy
Stream size : 576 MiB (7%)
Title : Original
Language : English
Default : No
Forced : No
Text #1
ID : 5
Format : UTF-8
Codec ID : S_TEXT/UTF8
Codec ID/Info : UTF-8 Plain Text
Title : Full
Language : Russian
Default : No
Forced : No
Text #2
ID : 6
Format : UTF-8
Codec ID : S_TEXT/UTF8
Codec ID/Info : UTF-8 Plain Text
Title : Full
Language : English
Default : No
Forced : No
Text #3
ID : 7
Format : UTF-8
Codec ID : S_TEXT/UTF8
Codec ID/Info : UTF-8 Plain Text
Title : SDH
Language : English
Default : No
Forced : No
Menu
00:00:00.000 : en:Chapter 01
00:02:37.157 : en:Chapter 02
00:12:11.772 : en:Chapter 03
00:24:17.539 : en:Chapter 04
00:32:14.682 : en:Chapter 05
00:40:05.277 : en:Chapter 06
00:48:11.680 : en:Chapter 07
00:53:23.241 : en:Chapter 08
01:00:16.612 : en:Chapter 09
01:07:17.032 : en:Chapter 10
01:11:16.730 : en:Chapter 11
01:21:54.659 : en:Chapter 12
01:27:25.657 : en:Chapter 13
01:38:29.778 : en:Chapter 14
01:46:35.347 : en:Chapter 15
01:52:26.364 : en:Chapter 16

Награды

Оскар, 1998 год
Номинации:
- Лучший монтаж звука
Премия канала «MTV», 1998 год
Номинации:
- Лучшая драка
Золотая малина, 1998 год
Номинации:
- Худшая женская роль второго плана (Милла Йовович)
- Худшая новая звезда (Крис Такер)
Британская академия, 1998 год
Победитель:
- Лучшие визуальные эффекты
Сезар, 1998 год
Победитель:
- Лучший режиссер (Люк Бессон)
- Лучшая работа оператора
- Лучшие декорации
Номинации:
- Лучший фильм
- Лучшие костюмы
- Лучший звук
- Лучший монтаж
- Лучший саундтрек
Сатурн, 1998 год
Номинации:
- Лучший научно-фантастический фильм
- Лучшая актриса второго плана (Милла Йовович)
- Лучшие костюмы
- Лучшие спецэффекты
Европейская киноакадемия, 1997 год
Номинации:
- Лучший фильм
Сейчас вы смотрите Пятый элемент / The Fifth Element (1997) BDRip 720p | D | Mastered in 4K,не забываем оставлять комментарии!
Пятый элемент / The Fifth Element (1997) BDRip 720p | D | Mastered in 4K [mytorrnado.ru].t1042.torrent 
Torrent: Registered [ 2015-11-17 19:39 ] · 4156283F73451BC3AEAD10870C7D723C50E797A9 Google it!

Download .torrent

20 KB

Status: checked
Completed: 54 times
Тип торрента: Публичный  - Seed: 2;  Leeh: 46    
Size: 7.76 GB
Поделиться:
FAQ:
 
Как качать?
Как качать?
X
Скачайте торрент и откройте его в своем клиенте
uTorrent

скачать программу,
дождитесь окончания загрузки.
Если торрент закрыт? Инстркуция.
* Как смотреть?
Как смотреть?
X

Для работы Magic Player
Вам необходимо установить
Ace Stream P2P Multimedia Plug-in

Установить

Для работы Magic Player Вам необходимо включить
Ace Stream P2P Multimedia Plug-in

Инструкция
terms.php
Похожие темы




Запрещено категорически:
» Развязывать разборки (для этого есть ЛС)
» Оставлять комментарии, не относящиеся к содержанию материала.
» Добавлять спам, рекламу флуд..
К спаму относится:
1. Реклама любого направления.
2. Ссылки на сторонние ресурсы рекламного характера.
3. Ссылки на ресурсы порнографического направления.
4. Сылки на блоги и им подбным контeнтам.
» Запрещено оскорбление администрации, модераторов и пользователей.
» Часто писать с вкл. Caps Lock
»За нарушение правил бан или отключение без объяснений.
Уважайте чужой труд!

Правила могут дополняться и изменяться. С уважением Администрация.
[Profile] [PM]
Display posts    
Reply to topic

Current time is: 29-Jul 18:24

All times are UTC + 5



You cannot post new topics in this forum
You cannot reply to topics in this forum
You cannot edit your posts in this forum
You cannot delete your posts in this forum
You cannot vote in polls in this forum
You cannot attach files in this forum
You can download files in this forum










!ATTENTION!
The site does not give electronic versions of products, and is engaged only in a collecting and cataloguing of the references sent and published at a forum by our readers. If you are the legal owner of any submitted material and do not wish that the reference to it was in our catalogue, contact us and we shall immediately remove her. Files for an exchange on tracker are given by users of a site, and the administration does not bear the responsibility for their maintenance. The request to not fill in the files protected by copyrights, and also files of the illegal maintenance!