Человек-муравей / Ant-Man (2015) WEB-DLRip | КПК | iTunes

DL-List and Torrent activity [Update ]
Size:  614 MB   |    Registered:  5 years 8 months   |    Completed:  22 times
Seeders:  48  [  0 KB/s  ]   Leechers:  85  [  0 KB/s  ]  
 
     
 
 
Author Message

Иваныч ®

Gender: Male

Longevity: 5 years 8 months

Posts: 8200

Наличие запрета:


Карма  175 

Location: Россия,Курган



: 19 ()

Активный релизер  (50 релизов) (1) Активный релизер  (3000 релизов) (1) Техпддержка (1) От администрации (1)
Активисту (1) От администрации (1) Дизайн (1) Активному релизеру (5000 раздач) (1)
Активный релизер  (250 и более релизов) (1) Активный релизер  (150 релизов) (1) Активный релизер  (100 релизов) (1) За внесенный вклад в развитие сайта (1)

Post 17-Nov-2015 21:13

[Quote]

• Человек-муравей / Ant-Man •
Страна: США
Производство: Marvel Studios Inc.
Год выпуска: 2015
Жанр: фантастика, боевик, комедия, приключения
Режиссёр: Пейтон Рид
В ролях: Пол Радд, Майкл Дуглас, Эванджелин Лилли, Кори Столл, Майкл Пенья, Бобби Каннавале, Ти-Ай, Давид Дастмалчян, Эбби Райдер Фортсон, Джуди Грир [
Перевод: Профессиональный (полное дублирование) iTunes
Описание: Вооружившись удивительной способностью уменьшаться в размере, но обладать при этом большой силой, мошенник Скотт Лэнг должен стать героем и помочь своему наставнику, доктору Хэнку Пиму, сохранить в тайне существование костюма Человека-муравья от угроз нового поколения.
Качество: WEB-DLRip
Продолжительность: 01:57:21
Формат: MP4
Видео кодек: H.264
Аудио кодек: AAC-LC
Свойства видео: 640x344 (1:86:1), 23.976 fps, 600 kbps (0.114 bit/pixel)
Свойства аудио: 48.0 KHz, 2 ch, 128 kbps

MediaInfo

General
Complete name : X:Всё для мобильных телефонов и КПКВидеоЧеловек-муравей.2015.WEB-DLRip.mp4
Format : MPEG-4
Format profile : Base Media
Codec ID : isom
File size : 614 MiB
Duration : 1h 57mn
Overall bit rate mode : Variable
Overall bit rate : 731 Kbps
Encoded date : UTC 2015-11-17 10:00:17
Tagged date : UTC 2015-11-17 10:00:17
Video
ID : 1
Format : AVC
Format/Info : Advanced Video Codec
Format profile : High@L4.1
Format settings, CABAC : Yes
Format settings, ReFrames : 9 frames
Codec ID : avc1
Codec ID/Info : Advanced Video Coding
Duration : 1h 57mn
Bit rate : 600 Kbps
Width : 640 pixels
Height : 344 pixels
Display aspect ratio : 1.85:1
Frame rate mode : Constant
Frame rate : 23.976 fps
Color space : YUV
Chroma subsampling : 4:2:0
Scan type : Progressive
Bits/(Pixel*Frame) : 0.114
Stream size : 503 MiB (82%)
Title : 264@GPAC0.5.2-DEV-rev248-g39d5978-master
Writing library : x264 core 146 r2538 121396c
Encoding settings : cabac=1 / ref=9 / deblock=1:-3:-3 / analyse=0x3:0x113 / me=umh / subme=11 / psy=1 / psy_rd=1.00:0.00 / mixed_ref=1 / me_range=32 / chroma_me=1 / trellis=2 / 8x8dct=1 / cqm=0 / deadzone=21,11 / fast_pskip=0 / chroma_qp_offset=-2 / threads=6 / lookahead_threads=1 / sliced_threads=0 / nr=0 / decimate=0 / interlaced=0 / bluray_compat=0 / constrained_intra=0 / bframes=9 / b_pyramid=2 / b_adapt=2 / b_bias=0 / direct=3 / weightb=1 / open_gop=0 / weightp=2 / keyint=240 / keyint_min=23 / scenecut=40 / intra_refresh=0 / rc=2pass / mbtree=0 / bitrate=600 / ratetol=1.0 / qcomp=0.60 / qpmin=0 / qpmax=69 / qpstep=4 / cplxblur=20.0 / qblur=0.5 / ip_ratio=1.40 / pb_ratio=1.30 / aq=1:1.00
Tagged date : UTC 2015-11-17 10:00:40
Audio
ID : 2
Format : AAC
Format/Info : Advanced
Duration : 1h 57mn
Bit rate mode : Variable
Bit rate : 128 Kbps
Maximum bit rate : 173 Kbps
Channel(s) : 2 channels
Channel positions : Front: L R
Sampling rate : 48.0 KHz
Stream size : 107 MiB (17%)

Скриншоты

Сейчас вы смотрите Человек-муравей / Ant-Man (2015) WEB-DLRip | КПК | iTunes,не забываем оставлять комментарии!
Человек-муравей / Ant-Man (2015) WEB-DLRip | КПК | iTunes [mytorrnado.ru].t1049.torrent 
Torrent: Registered [ 2015-11-17 21:13 ] · 28A5AE005DF4D8C80A6A862A0BFF5FD978BE747C Google it!

Download .torrent

13 KB

Status: checked
Completed: 22 times
Тип торрента: Публичный  - Seed: 48;  Leeh: 85    
Size: 614 MB
Поделиться:
FAQ:
 
Как качать?
Как качать?
X
Скачайте торрент и откройте его в своем клиенте
uTorrent

скачать программу,
дождитесь окончания загрузки.
Если торрент закрыт? Инстркуция.
* Как смотреть?
Как смотреть?
X

Для работы Magic Player
Вам необходимо установить
Ace Stream P2P Multimedia Plug-in

Установить

Для работы Magic Player Вам необходимо включить
Ace Stream P2P Multimedia Plug-in

Инструкция
terms.php
Похожие темы




Запрещено категорически:
» Развязывать разборки (для этого есть ЛС)
» Оставлять комментарии, не относящиеся к содержанию материала.
» Добавлять спам, рекламу флуд..
К спаму относится:
1. Реклама любого направления.
2. Ссылки на сторонние ресурсы рекламного характера.
3. Ссылки на ресурсы порнографического направления.
4. Сылки на блоги и им подбным контeнтам.
» Запрещено оскорбление администрации, модераторов и пользователей.
» Часто писать с вкл. Caps Lock
»За нарушение правил бан или отключение без объяснений.
Уважайте чужой труд!

Правила могут дополняться и изменяться. С уважением Администрация.
[Profile] [PM]
Display posts    
Reply to topic

Current time is: 24-Jul 10:29

All times are UTC + 5



You cannot post new topics in this forum
You cannot reply to topics in this forum
You cannot edit your posts in this forum
You cannot delete your posts in this forum
You cannot vote in polls in this forum
You cannot attach files in this forum
You can download files in this forum










!ATTENTION!
The site does not give electronic versions of products, and is engaged only in a collecting and cataloguing of the references sent and published at a forum by our readers. If you are the legal owner of any submitted material and do not wish that the reference to it was in our catalogue, contact us and we shall immediately remove her. Files for an exchange on tracker are given by users of a site, and the administration does not bear the responsibility for their maintenance. The request to not fill in the files protected by copyrights, and also files of the illegal maintenance!