Костяной томагавк / Bone Tomahawk (2015) WEB-DLRip-AVC | L

DL-List and Torrent activity [Update ]
Size:  2.53 GB   |    Registered:  5 years 8 months   |    Completed:  50 times
Seeders:  2  [  0 KB/s  ]   Leechers:  80  [  0 KB/s  ]  
 
     
 
 
 
Author Message

Иваныч ®

Gender: Male

Longevity: 5 years 8 months

Posts: 8200

Наличие запрета:


Карма  175 

Location: Россия,Курган



: 19 ()

Активный релизер  (50 релизов) (1) Активный релизер (500 релизов) (1) Активисту (1) От администрации (1)
За внесенный вклад в развитие сайта (1) Активный релизер  (200 релизов) (1) Дизайн (1) Техпддержка (1)
Реализация решений (1) Активный релизер  (2000 релизов) (1) Активный релизер  (3000 релизов) (1) От администрации (1)

Post 17-Nov-2015 23:19

[Quote]

Производство: США, Caliber Media Company
Жанр: Ужасы, Вестерн
Режиссер: С. Крэйг Залер
Продюсер: Джек Хеллер, Даллас Зонньер, Скотт Форт
Актеры: Патрик Уилсон, Курт Расселл, Лили Симмонс, Шон Янг, Занн МаКларнон, Мэттью Фокс, Дэвид Аркетт, Сид Хэйг, Ричард Дженкинс, Кэтрин Моррис
Описание:
Четверо людей приезжают на дикий запад, для того чтобы убрать кровожадных каннибалов из пещер. Ведь население напугано. Каждую ночь эти монстры приходят и забирают самых слабых, только для того, чтобы полакомиться трупами.
Это дебютный фильм С. Крэйга Залера, выступающего в качестве режиссёра, сценариста и продюсера. Его работа «Разбойники из Рэттлборджа» в 2006 году возглавляла «Черный список» лучших неспродюсированных сценариев.

Продолжительность: 02:12:03
Качество видео: WEB-DLRi-AVC
Перевод: Любительское (многоголосное) [студия "Paradox" & "Omskbird records"]
Вид субтитров: Вшитые отключаемые
Язык субтитров: Английский (Full)
Видео: AVC, 1024x432 (2.35:1), 23.976 fps, 2 162 Kbps (0.204 bit/pixel)
Аудио »1: 48 kHz, AC3 Dolby Digital, 2/0 (L,R) ch, ~384 kbps (Русский)
Аудио »2: 48 kHz, AC3 Dolby Digital, 3/2 (L,C,R,l,r) + LFE ch, ~384 kbps (Английский)
Сэмпл
Скриншоты:

MI

Формат : Matroska
Версия формата : Version 2
Размер файла : 2,53 Гбайт
Продолжительность : 2 ч. 12 м.
Общий поток : 2739 Кбит/сек
Дата кодирования : UTC 2015-11-17 17:46:58
Программа кодирования : mkvmerge v5.3.0 ('I could have danced') built on Feb 9 2012 10:38:07
Библиотека кодирования : libebml v1.2.3 + libmatroska v1.3.0
Attachment : Yes
Видео
Идентификатор : 1
Формат : AVC
Формат/Информация : Advanced Video Codec
Профиль формата : High@L4.1
Параметр CABAC формата : Да
Параметр ReFrames формата : 9 кадров
Идентификатор кодека : V_MPEG4/ISO/AVC
Продолжительность : 2 ч. 12 м.
Битрейт : 2162 Кбит/сек
Ширина : 1024 пикселя
Высота : 432 пикселя
Соотношение сторон : 2,40:1
Режим частоты кадров : Постоянный
Частота кадров : 23,976 кадра/сек
Цветовое пространство : YUV
Субдискретизация насыщенности : 4:2:0
Битовая глубина : 8 бит
Тип развёртки : Прогрессивная
Бит/(Пиксели*Кадры) : 0.204
Размер потока : 1,95 Гбайт (77%)
Библиотека кодирования : x264 core 146 r2538 121396c
Настройки программы : cabac=1 / ref=9 / deblock=1:-2:-2 / analyse=0x3:0x133 / me=umh / subme=10 / psy=1 / psy_rd=1.00:0.00 / mixed_ref=1 / me_range=32 / chroma_me=1 / trellis=2 / 8x8dct=1 / cqm=0 / deadzone=21,11 / fast_pskip=0 / chroma_qp_offset=-2 / threads=12 / lookahead_threads=2 / sliced_threads=0 / nr=0 / decimate=0 / interlaced=0 / bluray_compat=0 / constrained_intra=0 / bframes=7 / b_pyramid=2 / b_adapt=2 / b_bias=0 / direct=3 / weightb=1 / open_gop=0 / weightp=2 / keyint=240 / keyint_min=23 / scenecut=40 / intra_refresh=0 / rc=2pass / mbtree=0 / bitrate=2162 / ratetol=1.0 / qcomp=0.60 / qpmin=0 / qpmax=69 / qpstep=4 / cplxblur=20.0 / qblur=0.5 / ip_ratio=1.40 / pb_ratio=1.30 / aq=1:1.00
Default : Да
Forced : Нет
Аудио #1
Идентификатор : 2
Формат : AC-3
Формат/Информация : Audio Coding 3
Расширение режима : CM (complete main)
Параметр Endianness формата : Big
Идентификатор кодека : A_AC3
Продолжительность : 2 ч. 12 м.
Вид битрейта : Постоянный
Битрейт : 192 Кбит/сек
Каналы : 2 канала
Расположение каналов : Front: L R
Частота : 48,0 КГц
Битовая глубина : 16 бит
Метод сжатия : С потерями
Размер потока : 181 Мбайт (7%)
Default : Да
Forced : Нет
Аудио #2
Идентификатор : 3
Формат : AC-3
Формат/Информация : Audio Coding 3
Расширение режима : CM (complete main)
Параметр Endianness формата : Big
Идентификатор кодека : A_AC3
Продолжительность : 2 ч. 12 м.
Вид битрейта : Постоянный
Битрейт : 384 Кбит/сек
Каналы : 6 каналов
Расположение каналов : Front: L C R, Side: L R, LFE
Частота : 48,0 КГц
Битовая глубина : 16 бит
Метод сжатия : С потерями
Размер потока : 363 Мбайт (14%)
Язык : English
Default : Нет
Forced : Нет
Текст
Идентификатор : 4
Формат : UTF-8
Идентификатор кодека : S_TEXT/UTF8
Идентификатор кодека/Информация : UTF-8 Plain Text
Язык : English
Default : Нет
Forced : Нет
Меню
00:00:00.000 : en:Buddy and Purvis
00:09:51.000 : en:Sheriff Hunt
00:24:27.000 : en:Hunt and Arthur
00:34:51.000 : en:A Rescue Plan
00:46:56.000 : en:The First Night
01:02:34.000 : en:Attacked
01:12:39.000 : en:Another Setback
01:27:48.000 : en:Prepare for Battle
01:34:13.000 : en:Deputy Nick
01:46:46.000 : en:Arthur to the Rescue
01:56:20.000 : en:A Last Fight for Freedom
02:04:48.000 : en:Credits
Сейчас вы смотрите Костяной томагавк / Bone Tomahawk (2015) WEB-DLRip-AVC | L,не забываем оставлять комментарии!
Костяной томагавк / Bone Tomahawk (2015) WEB-DLRip-AVC | L [mytorrnado.ru].t1051.torrent 
Torrent: Registered [ 2015-11-17 23:19 ] · 8F757803F6D650B02CAEF5BD81D6352861E93F05 Google it!

Download .torrent

13 KB

Status: checked
Completed: 50 times
Тип торрента: Публичный  - Seed: 2;  Leeh: 80    
Size: 2.53 GB
Поделиться:
FAQ:
 
Как качать?
Как качать?
X
Скачайте торрент и откройте его в своем клиенте
uTorrent

скачать программу,
дождитесь окончания загрузки.
Если торрент закрыт? Инстркуция.
* Как смотреть?
Как смотреть?
X

Для работы Magic Player
Вам необходимо установить
Ace Stream P2P Multimedia Plug-in

Установить

Для работы Magic Player Вам необходимо включить
Ace Stream P2P Multimedia Plug-in

Инструкция
terms.php
Похожие темы




Запрещено категорически:
» Развязывать разборки (для этого есть ЛС)
» Оставлять комментарии, не относящиеся к содержанию материала.
» Добавлять спам, рекламу флуд..
К спаму относится:
1. Реклама любого направления.
2. Ссылки на сторонние ресурсы рекламного характера.
3. Ссылки на ресурсы порнографического направления.
4. Сылки на блоги и им подбным контeнтам.
» Запрещено оскорбление администрации, модераторов и пользователей.
» Часто писать с вкл. Caps Lock
»За нарушение правил бан или отключение без объяснений.
Уважайте чужой труд!

Правила могут дополняться и изменяться. С уважением Администрация.
[Profile] [PM]
Display posts    
Reply to topic

Current time is: 24-Jul 10:15

All times are UTC + 5



You cannot post new topics in this forum
You cannot reply to topics in this forum
You cannot edit your posts in this forum
You cannot delete your posts in this forum
You cannot vote in polls in this forum
You cannot attach files in this forum
You can download files in this forum










!ATTENTION!
The site does not give electronic versions of products, and is engaged only in a collecting and cataloguing of the references sent and published at a forum by our readers. If you are the legal owner of any submitted material and do not wish that the reference to it was in our catalogue, contact us and we shall immediately remove her. Files for an exchange on tracker are given by users of a site, and the administration does not bear the responsibility for their maintenance. The request to not fill in the files protected by copyrights, and also files of the illegal maintenance!