Плохие парни 2 / Bad Boys II (2003) BDRip 1080p | D, P, P2, A

DL-List and Torrent activity [Update ]
Size:  15.67 GB   |    Registered:  5 years 8 months   |    Completed:  28 times
Seeders:  2  [  0 KB/s  ]   Leechers:  4  [  0 KB/s  ]  
 
     
 
 
 
Author Message

Иваныч ®

Gender: Male

Longevity: 5 years 8 months

Posts: 8200

Наличие запрета:


Карма  175 

Location: Россия,Курган



: 19 ()

Активисту (1) Реализация решений (1) От администрации (1) Активному релизеру (5000 раздач) (1)
Активный релизер  (50 релизов) (1) Активный релизер  (250 и более релизов) (1) Активный релизер  (3000 релизов) (1) Активный релизер  (200 релизов) (1)
Активный релизер  (2000 релизов) (1) Техпддержка (1) За внесенный вклад в развитие сайта (1) Активный релизер  (100 релизов) (1)

Post 19-Nov-2015 10:21

[Quote]

Информация о фильме
Название: Плохие парни 2
Оригинальное название: Bad Boys 2
Год выхода: 2003
Страна: США
Жанр: Комедия, боевик
Продолжительность: 02:26:44
Перевод: Профессиональный (полное дублирование), Профессиональный (многоголосый закадровый), Профессиональный (двухголосый закадровый), Авторский (одноголосый закадровый)
Субтитры: Русские, английские
Режиссер: Майкл Бэй
В ролях: Мартин Лоуренс, Уилл Смит, Хорди Молья, Гэбриэл Юнион, Питер Стормар, Тереза Рэндл, Джо Пантолиано, Майкл Шеннон, Джон Седа, Юл Васкез
О фильме: Детективы отдела по борьбе с незаконным оборотом наркотиков Майк Лоури и Маркус Бэрнетт получают задание расследовать схему доставки нового наркотика в Майами. Это расследование выводит их
на искусный заговор, сплетенный местным наркобароном с целью поставить под контроль всю торговлю наркотиками в городе.
По чистой случайности про эти амбициозные планы узнают и остальные игроки нелегального рынка, в результате чего вспыхивает настоящая война. Несмотря на это, Майку и Маркусу удается успешно справляться с
натиском наркомафии и сажать дилеров за решетку. Но ситуация начинает выходить из-под контроля, когда Майк не на шутку увлекается сестрой Маркуса, Сидни.
Торжество закона висит на волоске - ведь вместо выполнения спецзаданий детективы начинают выяснять отношения между собой...

Файл
Качество: BDRip 1080p
Формат: MKV
Видео кодек: H264
Аудио кодек: AC3, DTS
Видео: MPEG4 Video (H264), 1920x800, 23.976fps, 11.0 Mbps
Аудио #1: Русский: DTS, 48000 Hz, 6ch, 768 kbps - Дубляж, R5
Аудио #2: Русский: Dolby AC3, 48000 Hz, 6ch, 448 kbps - Многоголосый закадровый
Аудио #3: Русский: Dolby AC3, 48000 Hz, 6ch, 448 kbps - Двухголосый
Аудио #4: Русский: DTS, 48000 Hz, 6ch, 768 kbps - Одноголосый закадровый, А. Гаврилов
Аудио #5: Русский: Dolby AC3, 48000 Hz, 6ch, 448 kbps - Одноголосый закадровый, М. Яроцкий
Аудио #6: Русский: Dolby AC3, 48000 Hz, 6ch, 448 kbps - Одноголосый закадровый
Аудио #7: Украинский: Dolby AC3, 48000 Hz, 2ch, 192 kbps - Дубляж, Так Треба Продакшн (ТК Inter)
Аудио #8: Английский: DTS, 48000 Hz, 6ch, 768 kbps
Формат субтитров: Softsub (SRT)
Сэмпл

MediaInfo:

General
Unique ID : 193884775169000588942131554556959661814 (0x91DCD973F967F4FD9240FDAE5DA21EF6)
Complete name : F:Torrent 2Bad.Boys.II.renta23.mkv
Format : Matroska
Format version : Version 4 / Version 2
File size : 15.7 GiB
Duration : 2h 26mn
Overall bit rate : 15.3 Mbps
Movie name : 2003 Плохие парни 2 / renta23
Encoded date : UTC 2015-11-18 11:34:26
Writing application : mkvmerge v8.3.0 ('Over the Horizon') 64bit
Writing library : libebml v1.3.1 + libmatroska v1.4.2
DURATION : 02:25:12.786000000
NUMBER_OF_FRAMES : 2259
NUMBER_OF_BYTES : 84792
_STATISTICS_WRITING_APP : mkvmerge v8.3.0 ('Over the Horizon') 64bit
_STATISTICS_WRITING_DATE_UTC : 2015-11-18 11:34:26
_STATISTICS_TAGS : BPS DURATION NUMBER_OF_FRAMES NUMBER_OF_BYTES
Video
ID : 1
Format : AVC
Format/Info : Advanced Video Codec
Format profile : High@L4.1
Format settings, CABAC : Yes
Format settings, ReFrames : 5 frames
Codec ID : V_MPEG4/ISO/AVC
Duration : 2h 26mn
Bit rate : 11.0 Mbps
Width : 1 920 pixels
Height : 800 pixels
Display aspect ratio : 2.40:1
Frame rate mode : Constant
Frame rate : 23.976 fps
Color space : YUV
Chroma subsampling : 4:2:0
Bit depth : 8 bits
Scan type : Progressive
Bits/(Pixel*Frame) : 0.299
Stream size : 11.0 GiB (70%)
Title : 2003 Плохие парни 2
Writing library : x264 core 146 r2538 121396c
Encoding settings : cabac=1 / ref=5 / deblock=1:-1:-1 / analyse=0x3:0x133 / me=umh / subme=11 / psy=1 / psy_rd=1.11:0.23 / mixed_ref=1 / me_range=32 / chroma_me=1 / trellis=2 / 8x8dct=1 / cqm=0 / deadzone=21,11 / fast_pskip=0 / chroma_qp_offset=-3 / threads=12 / lookahead_threads=3 / sliced_threads=0 / nr=0 / decimate=1 / interlaced=0 / bluray_compat=0 / constrained_intra=0 / bframes=12 / b_pyramid=2 / b_adapt=2 / b_bias=0 / direct=3 / weightb=1 / open_gop=0 / weightp=2 / keyint=250 / keyint_min=23 / scenecut=40 / intra_refresh=0 / rc_lookahead=50 / rc=2pass / mbtree=1 / bitrate=11000 / ratetol=1.0 / qcomp=0.60 / qpmin=0 / qpmax=69 / qpstep=4 / cplxblur=20.0 / qblur=0.5 / ip_ratio=1.40 / aq=1:1.00
Language : English
Default : Yes
Forced : No
Audio #1
ID : 2
Format : DTS
Format/Info : Digital Theater Systems
Mode : 16
Format settings, Endianness : Big
Codec ID : A_DTS
Duration : 2h 26mn
Bit rate mode : Constant
Bit rate : 768 Kbps
Channel(s) : 6 channels
Channel positions : Front: L C R, Side: L R, LFE
Sampling rate : 48.0 KHz
Bit depth : 24 bits
Compression mode : Lossy
Stream size : 806 MiB (5%)
Title : Дубляж, R5
Language : Russian
Default : Yes
Forced : No
Audio #2
ID : 3
Format : AC-3
Format/Info : Audio Coding 3
Mode extension : CM (complete main)
Format settings, Endianness : Big
Codec ID : A_AC3
Duration : 2h 26mn
Bit rate mode : Constant
Bit rate : 448 Kbps
Channel(s) : 6 channels
Channel positions : Front: L C R, Side: L R, LFE
Sampling rate : 48.0 KHz
Compression mode : Lossy
Stream size : 470 MiB (3%)
Title : Многоголосый
Language : Russian
Default : No
Forced : No
Audio #3
ID : 4
Format : AC-3
Format/Info : Audio Coding 3
Mode extension : CM (complete main)
Format settings, Endianness : Big
Codec ID : A_AC3
Duration : 2h 26mn
Bit rate mode : Constant
Bit rate : 448 Kbps
Channel(s) : 6 channels
Channel positions : Front: L C R, Side: L R, LFE
Sampling rate : 48.0 KHz
Compression mode : Lossy
Stream size : 470 MiB (3%)
Title : Двухголосый
Language : Russian
Default : No
Forced : No
Audio #4
ID : 5
Format : DTS
Format/Info : Digital Theater Systems
Mode : 16
Format settings, Endianness : Big
Codec ID : A_DTS
Duration : 2h 26mn
Bit rate mode : Constant
Bit rate : 768 Kbps
Channel(s) : 6 channels
Channel positions : Front: L C R, Side: L R, LFE
Sampling rate : 48.0 KHz
Bit depth : 24 bits
Compression mode : Lossy
Stream size : 806 MiB (5%)
Title : Одноголосый. А. Гаврилов
Language : Russian
Default : No
Forced : No
Audio #5
ID : 6
Format : AC-3
Format/Info : Audio Coding 3
Mode extension : CM (complete main)
Format settings, Endianness : Big
Codec ID : A_AC3
Duration : 2h 26mn
Bit rate mode : Constant
Bit rate : 448 Kbps
Channel(s) : 6 channels
Channel positions : Front: L C R, Side: L R, LFE
Sampling rate : 48.0 KHz
Compression mode : Lossy
Stream size : 470 MiB (3%)
Title : Одноголосый, М. Яроцкий
Language : Russian
Default : No
Forced : No
Audio #6
ID : 7
Format : AC-3
Format/Info : Audio Coding 3
Mode extension : CM (complete main)
Format settings, Endianness : Big
Codec ID : A_AC3
Duration : 2h 26mn
Bit rate mode : Constant
Bit rate : 448 Kbps
Channel(s) : 6 channels
Channel positions : Front: L C R, Side: L R, LFE
Sampling rate : 48.0 KHz
Compression mode : Lossy
Stream size : 470 MiB (3%)
Title : Одноголосый
Language : Russian
Default : No
Forced : No
Audio #7
ID : 8
Format : AC-3
Format/Info : Audio Coding 3
Mode extension : CM (complete main)
Format settings, Endianness : Big
Codec ID : A_AC3
Duration : 2h 26mn
Bit rate mode : Constant
Bit rate : 192 Kbps
Channel(s) : 2 channels
Channel positions : Front: L R
Sampling rate : 48.0 KHz
Compression mode : Lossy
Stream size : 202 MiB (1%)
Title : Дубляж, ТакТреба Продакшн (ТК Inter)
Language : Ukrainian
Default : No
Forced : No
Audio #8
ID : 9
Format : DTS
Format/Info : Digital Theater Systems
Mode : 16
Format settings, Endianness : Big
Codec ID : A_DTS
Duration : 2h 26mn
Bit rate mode : Constant
Bit rate : 768 Kbps
Channel(s) : 6 channels
Channel positions : Front: L C R, Side: L R, LFE
Sampling rate : 48.0 KHz
Bit depth : 24 bits
Compression mode : Lossy
Stream size : 806 MiB (5%)
Language : English
Default : No
Forced : No
Text #1
ID : 10
Format : UTF-8
Codec ID : S_TEXT/UTF8
Codec ID/Info : UTF-8 Plain Text
Language : Russian
Default : No
Forced : No
Text #2
ID : 11
Format : UTF-8
Codec ID : S_TEXT/UTF8
Codec ID/Info : UTF-8 Plain Text
Language : English
Default : No
Forced : No
Text #3
ID : 12
Format : UTF-8
Codec ID : S_TEXT/UTF8
Codec ID/Info : UTF-8 Plain Text
Language : English
Default : No
Forced : No
Menu
00:00:00.000 : en:Chapter 01
00:11:04.497 : en:Chapter 02
00:21:54.313 : en:Chapter 03
00:39:54.767 : en:Chapter 04
00:45:27.683 : en:Chapter 05
00:53:27.412 : en:Chapter 06
00:59:01.246 : en:Chapter 07
01:06:26.065 : en:Chapter 08
01:11:28.242 : en:Chapter 09
01:17:53.168 : en:Chapter 10
01:30:27.130 : en:Chapter 11
01:37:37.977 : en:Chapter 12
01:45:53.388 : en:Chapter 13
01:56:46.624 : en:Chapter 14
02:05:07.333 : en:Chapter 15
02:16:06.700 : en:Chapter 16

Сейчас вы смотрите Плохие парни 2 / Bad Boys II (2003) BDRip 1080p | D, P, P2, A,не забываем оставлять комментарии!
Плохие парни 2 / Bad Boys II (2003) BDRip 1080p | D, P, P2, A [mytorrnado.ru].t1108.torrent 
Torrent: Registered [ 2015-11-19 10:21 ] · E80114D1C8F0AF5E72FD99267C32BDE3CA369776 Google it!

Download .torrent

79 KB

Status: checked
Completed: 28 times
Тип торрента: Публичный  - Seed: 2;  Leeh: 4    
Size: 15.67 GB
Поделиться:
FAQ:
 
Как качать?
Как качать?
X
Скачайте торрент и откройте его в своем клиенте
uTorrent

скачать программу,
дождитесь окончания загрузки.
Если торрент закрыт? Инстркуция.
* Как смотреть?
Как смотреть?
X

Для работы Magic Player
Вам необходимо установить
Ace Stream P2P Multimedia Plug-in

Установить

Для работы Magic Player Вам необходимо включить
Ace Stream P2P Multimedia Plug-in

Инструкция
terms.php
Похожие темы




Запрещено категорически:
» Развязывать разборки (для этого есть ЛС)
» Оставлять комментарии, не относящиеся к содержанию материала.
» Добавлять спам, рекламу флуд..
К спаму относится:
1. Реклама любого направления.
2. Ссылки на сторонние ресурсы рекламного характера.
3. Ссылки на ресурсы порнографического направления.
4. Сылки на блоги и им подбным контeнтам.
» Запрещено оскорбление администрации, модераторов и пользователей.
» Часто писать с вкл. Caps Lock
»За нарушение правил бан или отключение без объяснений.
Уважайте чужой труд!

Правила могут дополняться и изменяться. С уважением Администрация.
[Profile] [PM]
Display posts    
Reply to topic

Current time is: 24-Jul 10:00

All times are UTC + 5



You cannot post new topics in this forum
You cannot reply to topics in this forum
You cannot edit your posts in this forum
You cannot delete your posts in this forum
You cannot vote in polls in this forum
You cannot attach files in this forum
You can download files in this forum










!ATTENTION!
The site does not give electronic versions of products, and is engaged only in a collecting and cataloguing of the references sent and published at a forum by our readers. If you are the legal owner of any submitted material and do not wish that the reference to it was in our catalogue, contact us and we shall immediately remove her. Files for an exchange on tracker are given by users of a site, and the administration does not bear the responsibility for their maintenance. The request to not fill in the files protected by copyrights, and also files of the illegal maintenance!