Мандарины / Mandariinid (2013) BDRip 1080p от HDReactor

DL-List and Torrent activity [Update ]
Size:  4.63 GB   |    Registered:  5 years 8 months   |    Completed:  34 times
Seeders:  1  [  0 KB/s  ]   Leechers:  16  [  0 KB/s  ]  
 
     
 
 
 
Author Message

Иваныч ®

Gender: Male

Longevity: 5 years 9 months

Posts: 8246

Наличие запрета:


Карма  175 

Location: Россия,Курган



: 19 ()

Дизайн (1) Активный релизер  (100 релизов) (1) Активный релизер  (3000 релизов) (1) За внесенный вклад в развитие сайта (1)
Активный релизер  (250 и более релизов) (1) Активному релизеру (5000 раздач) (1) Активный релизер (500 релизов) (1) От администрации (1)
Реализация решений (1) Активисту (1) Активный релизер  (1000 релизов) (1) Активный релизер  (200 релизов) (1)

Post 19-Nov-2015 13:37

[Quote]

Информация о фильме
Название: Мандарины
Оригинальное название: Mandariinid
Год выхода: 2013
Жанр: Драма, военный
Режиссер: Заза Урушадзе
В ролях: Лембит Ульфсак, Элмо Нюганен, Георгий Накашидзе, Михаил Месхи, Райво Трасс, Каха Аревадзе, Зураб Бегалишвили, Георгий Цаава
О фильме:
Сюжет картины повествует о событиях, развернувшихся в кавказском селе эстонских переселенцев во время Абхазской войны 1992 года, когда абхазцы боролись за отделение от Грузии. 1992 год, Абхазия. Древнее эстонское село, расположенное в живописном месте между горами и морем, опустело - эстонцы вернулись на свою историческую родину. Остались только хозяин тарного цеха Иво, его сосед, владелец мандариновой плантации Маркус и местный доктор Юхан, который уже готов покинуть селение. Маркус также собирается уехать в Эстонию, но лишь после того, как будет собран урожай мандаринов. Война доходит до села, происходит боевое столкновение между грузинами и абхазцами. После боя Иво и Маркус находят одного оставшегося в живых чеченского наёмника по имени Ахмед, который воюет на абхазской стороне. Иво забирает Ахмеда к себе домой, чтобы его вылечить. Ночью, хороня погибших, Маркус обнаруживает, что, несмотря на тяжелое ранение, в бою выжил и один грузин - молодой парень Ника. Его тоже относят в дом Иво. Так под одной крышей оказываются бойцы противоборствующих сторон...

Страна: Эстония, Грузия
Студия: Allfilm
Продолжительность: 01:22:59
Перевод: Оригинал (русский / эстонский), любительский одноголосый
Файл
Качество: BDRip (1080p)
Видео: MPEG-4 AVC, 6633 Кбит/с, 1920x804, 25 Кадр/с
Аудио #1: Русский (AC3, 6 ch, 448 Кбит/с) - PashaUP
Аудио #2: Русско-эстонский (AC3, 6 ch, 448 Кбит/с)
Аудио #3: Испанский (AC3, 6 ch, 448 Кбит/с)
Субтитры: Русские (на эстонскую речь и текст)

МедиаИнфо

Формат : Matroska
Версия формата : Version 2
Размер файла : 4,63 Гбайт
Продолжительность : 1 ч. 22 м.
Общий поток : 7980 Кбит/сек
Название фильма : ~V ad~
Дата кодирования : UTC 2015-11-19 07:56:12
Программа кодирования : mkvmerge v6.5.0 ('Isn't she lovely') built on Oct 20 2013 12:50:05
Библиотека кодирования : libebml v1.3.0 + libmatroska v1.4.1
Видео
Идентификатор : 1
Формат : AVC
Формат/Информация : Advanced Video Codec
Профиль формата : High@L4.1
Параметр CABAC формата : Да
Параметр ReFrames формата : 5 кадров
Идентификатор кодека : V_MPEG4/ISO/AVC
Продолжительность : 1 ч. 22 м.
Битрейт : 6633 Кбит/сек
Ширина : 1920 пикселей
Высота : 804 пикселя
Соотношение сторон : 2,40:1
Режим частоты кадров : Постоянный
Частота кадров : 25,000 кадров/сек
Цветовое пространство : YUV
Субдискретизация насыщенности : 4:2:0
Битовая глубина : 8 бит
Тип развёртки : Прогрессивная
Бит/(Пиксели*Кадры) : 0.172
Размер потока : 3,75 Гбайт (81%)
Заголовок : ~V~
Библиотека кодирования : x264 core 148 r2579 73ae2d1
Настройки программы : cabac=1 / ref=5 / deblock=1:-2:-2 / analyse=0x3:0x133 / me=umh / subme=11 / psy=1 / psy_rd=1.00:0.00 / mixed_ref=1 / me_range=32 / chroma_me=1 / trellis=2 / 8x8dct=1 / cqm=0 / deadzone=21,11 / fast_pskip=0 / chroma_qp_offset=-2 / threads=12 / lookahead_threads=1 / sliced_threads=0 / nr=0 / decimate=0 / interlaced=0 / bluray_compat=0 / constrained_intra=0 / bframes=9 / b_pyramid=2 / b_adapt=2 / b_bias=0 / direct=3 / weightb=1 / open_gop=0 / weightp=2 / keyint=250 / keyint_min=25 / scenecut=40 / intra_refresh=0 / rc=2pass / mbtree=0 / bitrate=6633 / ratetol=1.0 / qcomp=0.60 / qpmin=0 / qpmax=69 / qpstep=4 / cplxblur=20.0 / qblur=0.5 / ip_ratio=1.40 / pb_ratio=1.30 / aq=1:0.80
Язык : English
Default : Да
Forced : Нет
Аудио #1
Идентификатор : 2
Формат : AC-3
Формат/Информация : Audio Coding 3
Расширение режима : CM (complete main)
Параметр Endianness формата : Big
Идентификатор кодека : A_AC3
Продолжительность : 1 ч. 22 м.
Вид битрейта : Постоянный
Битрейт : 448 Кбит/сек
Каналы : 6 каналов
Расположение каналов : Front: L C R, Side: L R, LFE
Частота : 48,0 КГц
Метод сжатия : С потерями
Размер потока : 266 Мбайт (6%)
Заголовок : на эстонский язык [PashaUP]
Язык : Russian
Default : Да
Forced : Да
Аудио #2
Идентификатор : 3
Формат : AC-3
Формат/Информация : Audio Coding 3
Расширение режима : CM (complete main)
Параметр Endianness формата : Big
Идентификатор кодека : A_AC3
Продолжительность : 1 ч. 22 м.
Вид битрейта : Постоянный
Битрейт : 448 Кбит/сек
Каналы : 6 каналов
Расположение каналов : Front: L C R, Side: L R, LFE
Частота : 48,0 КГц
Метод сжатия : С потерями
Размер потока : 266 Мбайт (6%)
Заголовок : Русский/эстонский
Язык : Estonian
Default : Нет
Forced : Нет
Аудио #3
Идентификатор : 4
Формат : AC-3
Формат/Информация : Audio Coding 3
Расширение режима : CM (complete main)
Параметр Endianness формата : Big
Идентификатор кодека : A_AC3
Продолжительность : 1 ч. 22 м.
Вид битрейта : Постоянный
Битрейт : 448 Кбит/сек
Каналы : 6 каналов
Расположение каналов : Front: L C R, Side: L R, LFE
Частота : 48,0 КГц
Метод сжатия : С потерями
Размер потока : 266 Мбайт (6%)
Язык : Spanish
Default : Нет
Forced : Нет
Текст
Идентификатор : 5
Формат : UTF-8
Идентификатор кодека : S_TEXT/UTF8
Идентификатор кодека/Информация : UTF-8 Plain Text
Заголовок : на эстонский язык
Язык : Russian
Default : Нет
Forced : Нет
Меню
00:00:00.000 : en:Chapter 1
00:00:00.360 : en:Chapter 2
00:09:45.440 : en:Chapter 3
00:21:34.920 : en:Chapter 4
00:31:32.079 : en:Chapter 5
00:42:45.440 : en:Chapter 6
00:49:31.599 : en:Chapter 7
01:04:18.000 : en:Chapter 8
01:15:23.479 : en:Chapter 9
01:22:59.720 : en:Chapter 10

х264

x264 [info]: frame I:693 Avg QP:15.24 size:177194
x264 [info]: frame P:24076 Avg QP:17.95 size: 66160
x264 [info]: frame B:99725 Avg QP:19.98 size: 24200

Скриншоты


Релиз от:
Сейчас вы смотрите Мандарины / Mandariinid (2013) BDRip 1080p от HDReactor,не забываем оставлять комментарии!
Мандарины / Mandariinid (2013) BDRip 1080p от HDReactor [mytorrnado.ru].t1119.torrent 
Torrent: Registered [ 2015-11-19 13:37 ] · F70E984BF70160FEFADF0BB0458F28A799316E16 Google it!

Download .torrent

13 KB

Status: checked
Completed: 34 times
Тип торрента: Публичный  - Seed: 1;  Leeh: 16    
Size: 4.63 GB
Поделиться:
FAQ:
 
Как качать?
Как качать?
X
Скачайте торрент и откройте его в своем клиенте
uTorrent

скачать программу,
дождитесь окончания загрузки.
Если торрент закрыт? Инстркуция.
* Как смотреть?
Как смотреть?
X

Для работы Magic Player
Вам необходимо установить
Ace Stream P2P Multimedia Plug-in

Установить

Для работы Magic Player Вам необходимо включить
Ace Stream P2P Multimedia Plug-in

Инструкция
terms.php
Похожие темы




Запрещено категорически:
» Развязывать разборки (для этого есть ЛС)
» Оставлять комментарии, не относящиеся к содержанию материала.
» Добавлять спам, рекламу флуд..
К спаму относится:
1. Реклама любого направления.
2. Ссылки на сторонние ресурсы рекламного характера.
3. Ссылки на ресурсы порнографического направления.
4. Сылки на блоги и им подбным контeнтам.
» Запрещено оскорбление администрации, модераторов и пользователей.
» Часто писать с вкл. Caps Lock
»За нарушение правил бан или отключение без объяснений.
Уважайте чужой труд!

Правила могут дополняться и изменяться. С уважением Администрация.
[Profile] [PM]
Display posts    
Reply to topic

Current time is: 05-Aug 22:53

All times are UTC + 5



You cannot post new topics in this forum
You cannot reply to topics in this forum
You cannot edit your posts in this forum
You cannot delete your posts in this forum
You cannot vote in polls in this forum
You cannot attach files in this forum
You can download files in this forum










!ATTENTION!
The site does not give electronic versions of products, and is engaged only in a collecting and cataloguing of the references sent and published at a forum by our readers. If you are the legal owner of any submitted material and do not wish that the reference to it was in our catalogue, contact us and we shall immediately remove her. Files for an exchange on tracker are given by users of a site, and the administration does not bear the responsibility for their maintenance. The request to not fill in the files protected by copyrights, and also files of the illegal maintenance!