Начать новую тему Ответить на тему  [ 1 сообщение ] 
Статистика раздачи
Размер|   7.87 ГБ    |   8 453 923 843 байт   
Раздают|   3   Качают|   0      
Последний личер: |  назад  | (Google it!)
Автор Сообщение
Непрочитанное сообщение Добавлено: 29 фев 2020, 16:02 
Ответить с цитатой
Не в сети
Администратор
Администратор
Аватара пользователя


Открыть статистику

Раздал: 3.4 ТБ
Скачал: 6.65 ГБ
Ратио: 1520.059


Зарегистрирован: 01 июл 2016, 17:16
Сообщения: 1573
Баллы репутации: 10
За самый скачиваемый релиз
Медали: 7
за участие (1) Создание сайта (1) За 100 релизов (1) за 200 релизов (1)
За 500 релизов (1) За 1000 релизов (1) Кандидат на повышение (1)
Звёздный путь: Пикар / Star Trek: Picard / Сезон: 1 / Серии: 1-6 из 10 (Ханель М. Кулпеппер, Джонатан Фрейкс, Акива Голдсман) [2020, WEB-DL 720p]»Скачать торрент

Год выпуска: 2020
Страна: США
Жанр: фантастика, боевик, драма, приключения
Продолжительность: 00:44:18
Сезоны / серии: Сезон: 1 / 6 серия из 10
Перевод: Профессиональный (многоголосый закадровый) |AlexFilm|
Субтитры: Rus (Full), Eng (SDH)

В ролях: Патрик Стюарт, Сантьяго Кабрера, Иза Брионес, Элисон Пилл, Гарри Тредэвэй, Мишель Херд, Ребекка Висоцки, Джейми МакШейн, Орла Брэйди

Режиссёр: Ханель М. Кулпеппер, Джонатан Фрейкс, Акива Голдсман

Описание: Спустя 15 лет жизнь некогда бороздившего космические просторы Жана-Люка Пикара, кажется, стала совсем спокойной. Однако вскоре ему придётся покинуть насиженное место и отправиться навстречу очередным приключениям.


Качество: WEB-DL 720p
Формат: MKV
Видео кодек: AVC
Аудио кодек: AC3
Видео: AVC, 1280 x 720 (1.778), 23.976 fps, 3556 kbps
Аудио Rus: AC-3, 48 kHz, 6 ch, 384 kbps |AlexFilm|
Аудио Eng: AC-3, 48 kHz, 6 ch, 384 kbps |Original|

Реклама: Отсутствует
Медиа инфо: Общее
Уникальный идентификатор : 271506637461172508915085932362816779324 (0xCC4246BCD1717C911D2B14B79C53743C)
Полное имя : E:\_Сериалы\_Сериалы\Звездный путь Пикар\Star.Trek.Picard.S01.720p.WEB-DL.AlexFilm\Star.Trek.Picard.S01E01.WEBDL.720p.AF.RGzsRutracker.mkv
Формат : Matroska
Версия формата : Version 4
Размер файла : 1,34 Гбайт
Продолжительность : 44 м. 18 с.
Общий поток : 4326 Кбит/сек
Дата кодирования : UTC 2020-02-03 09:58:49
Программа кодирования : mkvmerge v43.0.0 ('The Quartermaster') 64-bit
Библиотека кодирования : libebml v1.3.10 + libmatroska v1.5.2
Видео
Идентификатор : 1
Формат : AVC
Формат/Информация : Advanced Video Codec
Профиль формата : High@L3.1
Настройки формата : CABAC / 4 Ref Frames
Параметр CABAC формата : Да
Параметр RefFrames формата : 4 кадра
Идентификатор кодека : V_MPEG4/ISO/AVC
Продолжительность : 44 м. 18 с.
Вид битрейта : Постоянный
Битрейт : 3556 Кбит/сек
Номинальный битрейт : 6000 Кбит/сек
Ширина : 1280 пикселей
Высота : 720 пикселей
Соотношение сторон : 16:9
Режим частоты кадров : Постоянный
Частота кадров : 23,976 (24000/1001) кадра/сек
Цветовое пространство : YUV
Субдискретизация насыщенности : 4:2:0
Битовая глубина : 8 бит
Тип развёртки : Прогрессивная
Бит/(Пиксели*Кадры) : 0.161
Размер потока : 1,10 Гбайт (82%)
Язык : English
Default : Да
Forced : Нет
Цветовой диапазон : Limited
Основные цвета : BT.709
Характеристики трансфера : BT.709
Коэффициенты матрицы : BT.709
Аудио #1
Идентификатор : 2
Формат : AC-3
Формат/Информация : Audio Coding 3
Коммерческое название : Dolby Digital
Идентификатор кодека : A_AC3
Продолжительность : 44 м. 18 с.
Вид битрейта : Постоянный
Битрейт : 384 Кбит/сек
Каналы : 6 каналов
ChannelLayout : L R C LFE Ls Rs
Частота : 48,0 КГц
Частота кадров : 31,250 кадров/сек (1536 SPF)
Метод сжатия : С потерями
Размер потока : 122 Мбайт (9%)
Язык : Russian
ServiceKind/String : Complete Main
Default : Да
Forced : Нет
Аудио #2
Идентификатор : 3
Формат : AC-3
Формат/Информация : Audio Coding 3
Коммерческое название : Dolby Digital
Идентификатор кодека : A_AC3
Продолжительность : 44 м. 18 с.
Вид битрейта : Постоянный
Битрейт : 384 Кбит/сек
Каналы : 6 каналов
ChannelLayout : L R C LFE Ls Rs
Частота : 48,0 КГц
Частота кадров : 31,250 кадров/сек (1536 SPF)
Метод сжатия : С потерями
Размер потока : 122 Мбайт (9%)
Заголовок : Original
Язык : English
ServiceKind/String : Complete Main
Default : Нет
Forced : Нет
Текст #1
Идентификатор : 4
Формат : UTF-8
Идентификатор кодека : S_TEXT/UTF8
Идентификатор кодека/Информация : UTF-8 Plain Text
Продолжительность : 42 м. 26 с.
Битрейт : 89 бит/сек
ElementCount : 571
Размер потока : 27,9 Кбайт (0%)
Язык : Russian
Default : Нет
Forced : Нет
Текст #2
Идентификатор : 5
Формат : UTF-8
Идентификатор кодека : S_TEXT/UTF8
Идентификатор кодека/Информация : UTF-8 Plain Text
Продолжительность : 41 м. 27 с.
Битрейт : 54 бит/сек
ElementCount : 546
Размер потока : 16,6 Кбайт (0%)
Язык : English
Default : Нет
Forced : Нет
Текст #3
Идентификатор : 6
Формат : UTF-8
Идентификатор кодека : S_TEXT/UTF8
Идентификатор кодека/Информация : UTF-8 Plain Text
Продолжительность : 42 м. 25 с.
Битрейт : 56 бит/сек
ElementCount : 589
Размер потока : 17,6 Кбайт (0%)
Заголовок : SDH
Язык : English
Default : Нет
Forced : Нет
Меню
00:00:00.000 : en:Amazon Original
00:00:06.000 : en:Keep the game from ending
00:04:01.000 : en:Activating a new weapon
00:06:55.000 : en:Opening Credits
00:08:33.000 : en:An important interview
00:16:38.000 : en:Dahj finds Picard
00:22:06.000 : en:A clue hidden in a painting
00:26:33.000 : en:Focus and find help
00:28:08.000 : en:The truth about Dahj
00:33:49.000 : en:A visit to Okinawa Research Facility
00:40:38.000 : en:Another sad story
00:43:17.000 : en:End Credits


Релиз подготовлен:
Релиз группа:

_________________



 Профиль
 
 
Понравилась тема расскажи друзьям!


  • Торрент

Звёздный путь: Пикар / Star Trek: Picard / Сезон: 1 / Серии: 1-6 из 10 (Ханель М. Кулпеппер, Джонатан Фрейкс, Акива Голдсман) [2020, WEB-DL 720p].torrent 
Зарегистрирован:  29 фев 2020, 16:02  HASH|77a43f72b79d12bda461f9d92f94dee15bb4d219| (Google it!)
Статус:  R обновляемая | хакер
Торрент:  Размер: 7.87 ГБ | Скачан: 886 раз | Торрент файл: 40.38 КБ  
Здоровье:   100%
Поделиться:
 
Как качать?
Как качать?
X
Скачайте торрент и откройте его в своем клиенте
uTorrent

скачать программу,
дождитесь окончания загрузки.
* Как смотреть?
Как смотреть?
X

Для работы Magic Player
Вам необходимо установить
Ace Stream P2P Multimedia Plug-in

Установить

Для работы Magic Player
Вам необходимо включить
Ace Stream P2P Multimedia Plug-in

Инструкция
Показать сообщения за:  Поле сортировки  
Начать новую тему Ответить на тему  [ 1 сообщение ] 

   Похожие торренты   Автор   Ответы   Просмотры   Последнее сообщение 
Непрочитанные сообщения Скачать торрент Магнет ссылка Проверено Перейти к первому непрочитанному сообщениюЗвёздный путь: Пикар / Star Trek: Picard (Сезон 1 , Серия 1-10 из 10) (Кулпеппер, Джонатан Фрейкс) [2020, Фантастика, боевик, драма, приключения,WEB-DLRip 1080p] За каждые 100 байт. аплоада (сидирования) этого торрента начисляется бонус: 1.000

в форуме Законченные зарубежные сериалы, Размер: 22.98 ГБ, Здоровье: 100%

nikolai.baranov1955

0
26|7

572
284

27 янв 2020, 14:08

nikolai.baranov1955 Перейти к последнему сообщению

Непрочитанные сообщения Скачать торрент Магнет ссылка Проверено Перейти к первому непрочитанному сообщениюЗвёздный путь: Пикар / Star Trek: Picard [1 сезон] (2020) WEB-DLRip | LostFilm За каждые 100 байт. аплоада (сидирования) этого торрента начисляется бонус: 1.000

в форуме Законченные зарубежные сериалы, Размер: 8.97 ГБ, Здоровье: 73%

K15

0
58|79

57
198

Сегодня, 00:03

K15 Перейти к последнему сообщению

Непрочитанные сообщения Скачать торрент Магнет ссылка Проверено Перейти к первому непрочитанному сообщениюЗвёздный путь: Пикар / Star Trek: Picard [01x01-10 из 10] (2020) WEBRip 720p от Kerob | L За каждые 100 байт. аплоада (сидирования) этого торрента начисляется бонус: 1.000

в форуме Законченные зарубежные сериалы, Размер: 14.75 ГБ, Здоровье: 50%

хакер

0
70|140

480
935

23 янв 2020, 17:26

хакер Перейти к последнему сообщению

Непрочитанные сообщения Скачать торрент Магнет ссылка R обновляемая Перейти к первому непрочитанному сообщениюЗвёздный путь: Пикар / Star Trek: Picard [01x01-05 из 10] (2020) WEBRip | Gears Media За каждые 100 байт. аплоада (сидирования) этого торрента начисляется бонус: 1.000

в форуме Зарубежние сериалы, Размер: 2.55 ГБ, Здоровье: 100%

хакер

0
11|2

322
1917

15 фев 2020, 15:24

хакер Перейти к последнему сообщению

Непрочитанные сообщения Скачать торрент Магнет ссылка Проверено Перейти к первому непрочитанному сообщениюЗвёздный путь: Дискавери / Star Trek: Discovery 2 сезона [2017-2020, Фантастика, WEBRip 720р] (LostFilm) За каждые 100 байт. аплоада (сидирования) этого торрента начисляется бонус: 1.000

в форуме Законченные зарубежные сериалы, Размер: 45.62 ГБ, Здоровье: 0%

хакер

0
0|0

409
1612

18 янв 2020, 22:57

хакер Перейти к последнему сообщению



Кто сейчас на конференции

Сейчас этот форум просматривают: нет зарегистрированных пользователей и гости: 2


Вы не можете начинать темы
Вы не можете отвечать на сообщения
Вы не можете редактировать свои сообщения
Вы не можете удалять свои сообщения
Вы не можете добавлять вложения

Найти:
Перейти:  
Ресурс не предоставляет электронные версии произведений, а занимается лишь коллекционированием и каталогизацией ссылок, присылаемых и публикуемых на форуме нашими читателями. Если вы являетесь правообладателем какого-либо представленного материала и не желаете чтобы ссылка на него находилась в нашем каталоге, свяжитесь с нами и мы незамедлительно удалим её. Файлы для обмена на трекере предоставлены пользователями сайта, и администрация не несёт ответственности за их содержание. Просьба не заливать файлы, защищенные авторскими правами, а также файлы нелегального содержания!
Информационное сообщение...
Доброго времени суток! Если вы попали на наш портал, советуем задержаться у нас и посмотрель материалы.А лучше всего оставайтесь и делитесь своими файлами со всем народом.Кроме этого вы сможете просмотреть нужный фильм в оригинальном качестве или прослушать музыку.Регистрируйтесь и воспользуйтесь всеми опциями трекера.