Изобретение лжи / The Invention of Lying (2009) DVD9 | D

DL-List and Torrent activity [Update ]
Size:  7.04 GB   |    Registered:  5 years 8 months   |    Completed:  31 times
Seeders:  20  [  0 KB/s  ]   Leechers:  7  [  0 KB/s  ]  
 
     
 
 
Author Message

Иваныч ®

Gender: Male

Longevity: 5 years 8 months

Posts: 8203

Наличие запрета:


Карма  175 

Location: Россия,Курган



: 19 ()

Помощь (1) Дизайн (1) Активисту (1) Активный релизер (500 релизов) (1)
От администрации (1) Активный релизер  (250 и более релизов) (1) Активный релизер  (100 релизов) (1) Активный релизер  (200 релизов) (1)
Техпддержка (1) Активный релизер  (150 релизов) (1) Активный релизер  (50 релизов) (1) Активный релизер  (1000 релизов) (1)

Post 04-Nov-2015 01:58

[Quote]


Информация о фильме
Название: Изобретение лжи
Оригинальное название: The Invention of Lying
Год выхода: 2009
Жанр: фэнтези, драма, мелодрама, комедия
Режиссер: Рики Джервэйс, Мэттью Робинсон
В ролях: Рики Джервэйс, Дженнифер Гарнер, Джона Хилл, Луис С.К., Джеффри Тэмбор, Финола Флэнаган, Роб Лоу, Тина Фей, Донна Сорбелло, Стефани Марч
О фильме:
Главный герой Марк живет в мире, где все говорят правду и только правду, здесь не существует лжи. Сам же он — неудачник, которого вот-вот уволят с работы. Его домовладелец дает ему 1 день, чтобы найти деньги на оплату жилья. Марк решается снять свои последние 300 долларов со счета, но вдруг что-то происходит в его голове, и в банке он, соврав, говорит, что хочет снять 800 долларов, и ему их выдают. После чего Марк потихоньку начинает пользоваться ложью, чтобы сделать свою жизнь и жизнь людей лучше…


детям до 13 лет просмотр не желателен
Страна: США
Студия: Warner Bros. Pictures, Wintergreen Productions
Продолжительность: 96 мин. / 01:36
Перевод: полное дублирование
Файл
Кодек: MPEG2
Качество: DVD9 "Юниверсал Пикчерс Рус"
Видео: PAL 16:9 (720x576@1024x576) VBR 5516 Kbps, 25.000 fps
Аудио: Dolby AC3, 6 ch, 48.0 KHz, 384 Kbps (русский, английский, польский)
Субтитры: русские, украинские, английские, латышские, литовские, польские, эстонские

Дополнительные материалы

Предыстория: возникновение лжиЗнакомьтесь, Карл ПилкингтонПо-настоящему "честный" ролик о съемкахДополнительные эпизодыВидеоподкасты Рики и МэттаЕще смешное

MediaInfo

Общее
Полное имя : E:Изобретение лжиVTS_01_1.VOB
Формат : MPEG-PS
Размер файла : 1024 Мбайт
Продолжительность : 21 м.
Режим общего битрейта : Переменный
Общий поток : 6803 Кбит/сек
Видео
Идентификатор : 224 (0xE0)
Формат : MPEG Video
Версия формата : Version 2
Профиль формата : Main@Main
Параметр BVOP формата : Да
Параметр матрицы формата : Выборочная
Параметр GOP формата : Variable
Структура изображения : Frame
Продолжительность : 21 м.
Вид битрейта : Переменный
Битрейт : 5516 Кбит/сек
Максимальный битрейт : 9800 Кбит/сек
Ширина : 720 пикселей
Высота : 576 пикселей
Соотношение сторон : 16:9
Частота кадров : 25,000 кадров/сек
Стандарт вещания : PAL
Цветовое пространство : YUV
Субдискретизация насыщенности : 4:2:0
Битовая глубина : 8 бит
Тип развёртки : Чересстрочная
Порядок развёртки : Верхнее поле первое
Метод сжатия : С потерями
Бит/(Пиксели*Кадры) : 0.532
Временной код первого кадра : 00:59:59:00
Оригинал временного кода : Group of pictures header
Размер потока : 830 Мбайт (81%)
Аудио #1
Идентификатор : 189 (0xBD)-128 (0x80)
Формат : AC-3
Формат/Информация : Audio Coding 3
Расширение режима : CM (complete main)
Параметр Endianness формата : Big
Режим смешивания : DVD-Video
Продолжительность : 21 м.
Вид битрейта : Постоянный
Битрейт : 384 Кбит/сек
Каналы : 6 каналов
Расположение каналов : Front: L C R, Side: L R, LFE
Частота : 48,0 КГц
Метод сжатия : С потерями
Размер потока : 57,8 Мбайт (6%)
Аудио #2
Идентификатор : 189 (0xBD)-129 (0x81)
Формат : AC-3
Формат/Информация : Audio Coding 3
Расширение режима : CM (complete main)
Параметр Endianness формата : Big
Режим смешивания : DVD-Video
Продолжительность : 21 м.
Вид битрейта : Постоянный
Битрейт : 384 Кбит/сек
Каналы : 6 каналов
Расположение каналов : Front: L C R, Side: L R, LFE
Частота : 48,0 КГц
Метод сжатия : С потерями
Размер потока : 57,8 Мбайт (6%)
Аудио #3
Идентификатор : 189 (0xBD)-130 (0x82)
Формат : AC-3
Формат/Информация : Audio Coding 3
Расширение режима : CM (complete main)
Параметр Endianness формата : Big
Режим смешивания : DVD-Video
Продолжительность : 21 м.
Вид битрейта : Постоянный
Битрейт : 384 Кбит/сек
Каналы : 6 каналов
Расположение каналов : Front: L C R, Side: L R, LFE
Частота : 48,0 КГц
Метод сжатия : С потерями
Размер потока : 57,8 Мбайт (6%)
Текст #1
Идентификатор : 189 (0xBD)-32 (0x20)
Формат : RLE
Формат/Информация : Run-length encoding
Режим смешивания : DVD-Video
Текст #2
Идентификатор : 189 (0xBD)-33 (0x21)
Формат : RLE
Формат/Информация : Run-length encoding
Режим смешивания : DVD-Video
Текст #3
Идентификатор : 189 (0xBD)-34 (0x22)
Формат : RLE
Формат/Информация : Run-length encoding
Режим смешивания : DVD-Video
Текст #4
Идентификатор : 189 (0xBD)-35 (0x23)
Формат : RLE
Формат/Информация : Run-length encoding
Режим смешивания : DVD-Video
Текст #5
Идентификатор : 189 (0xBD)-36 (0x24)
Формат : RLE
Формат/Информация : Run-length encoding
Режим смешивания : DVD-Video
Текст #6
Идентификатор : 189 (0xBD)-37 (0x25)
Формат : RLE
Формат/Информация : Run-length encoding
Режим смешивания : DVD-Video
Меню

Скриншоты


Сейчас вы смотрите Изобретение лжи / The Invention of Lying (2009) DVD9 | D,не забываем оставлять комментарии!
Изобретение лжи / The Invention of Lying (2009) DVD9 | D [mytorrnado.ru].t116.torrent 
Torrent: Registered [ 2015-11-04 01:58 ] · FC7276F2B89D9FA4A7737C0AF025A9AF33FFE617 Google it!

Download .torrent

39 KB

Status: checked
Completed: 31 times
Тип торрента: Публичный  - Seed: 20;  Leeh: 7    
Size: 7.04 GB
Поделиться:
FAQ:
 
Как качать?
Как качать?
X
Скачайте торрент и откройте его в своем клиенте
uTorrent

скачать программу,
дождитесь окончания загрузки.
Если торрент закрыт? Инстркуция.
* Как смотреть?
Как смотреть?
X

Для работы Magic Player
Вам необходимо установить
Ace Stream P2P Multimedia Plug-in

Установить

Для работы Magic Player Вам необходимо включить
Ace Stream P2P Multimedia Plug-in

Инструкция
terms.php




Запрещено категорически:
» Развязывать разборки (для этого есть ЛС)
» Оставлять комментарии, не относящиеся к содержанию материала.
» Добавлять спам, рекламу флуд..
К спаму относится:
1. Реклама любого направления.
2. Ссылки на сторонние ресурсы рекламного характера.
3. Ссылки на ресурсы порнографического направления.
4. Сылки на блоги и им подбным контeнтам.
» Запрещено оскорбление администрации, модераторов и пользователей.
» Часто писать с вкл. Caps Lock
»За нарушение правил бан или отключение без объяснений.
Уважайте чужой труд!

Правила могут дополняться и изменяться. С уважением Администрация.
[Profile] [PM]
Display posts    
Reply to topic

Current time is: 24-Jul 15:54

All times are UTC + 5



You cannot post new topics in this forum
You cannot reply to topics in this forum
You cannot edit your posts in this forum
You cannot delete your posts in this forum
You cannot vote in polls in this forum
You cannot attach files in this forum
You can download files in this forum










!ATTENTION!
The site does not give electronic versions of products, and is engaged only in a collecting and cataloguing of the references sent and published at a forum by our readers. If you are the legal owner of any submitted material and do not wish that the reference to it was in our catalogue, contact us and we shall immediately remove her. Files for an exchange on tracker are given by users of a site, and the administration does not bear the responsibility for their maintenance. The request to not fill in the files protected by copyrights, and also files of the illegal maintenance!