Возвращение к 36-ти ступеням Шаолиня / Shao Lin da peng da shi (1980) BDRip 1080p | P2, A

DL-List and Torrent activity [Update ]
Size:  8.2 GB   |    Registered:  5 years 9 months   |    Completed:  35 times
Seeders:  29  [  0 KB/s  ]   Leechers:  29  [  0 KB/s  ]  
 
     
 
 
Author Message

Иваныч ®

Gender: Male

Longevity: 5 years 9 months

Posts: 8246

Наличие запрета:


Карма  175 

Location: Россия,Курган



: 19 ()

Активный релизер  (200 релизов) (1) Реализация решений (1) Активный релизер  (100 релизов) (1) От администрации (1)
Активному релизеру (5000 раздач) (1) Активный релизер  (150 релизов) (1) Техпддержка (1) За внесенный вклад в развитие сайта (1)
Активный релизер  (3000 релизов) (1) Активный релизер  (250 и более релизов) (1) Активный релизер  (2000 релизов) (1) Помощь (1)

Post 04-Nov-2015 02:30

[Quote]


Информация о фильме
Название: Возвращение к 36-ти ступеням Шаолиня
Оригинальное название: Shao Lin da peng da shi
Год выхода: 1980
Жанр: боевик, комедия, ...
Режиссер: Лю Чя-Лян
В ролях: Цзя-Хуэй Лю, Ланг Вэй Ванг, Хоу Хсиао, Лун Хуа, Ёнг-Мун Квон, Кара Хюи, Сзу-Чиа Чен, Цуй Линг Ю, Вэй Хао Тенг, Гонг Сэк, ...
О фильме: Вторая часть трилогии. На этот раз Гордон Лиу играет обычного уличного прохиндея, который, побрившись под монаха, собирает на улицах деньги от имени Будды. Его подбирают предприимчивые рабочие-красильщики, которых притесняет их новый манчжурский босс и устраивают шоу, выдавая его за легендарного Сан Те. Впрочем, обман вскоре вскрывается, и опозоренный Гордон Лиу отправляется в монастырь, где решает научиться кунг-фу, а затем уже делом помочь своим новым друзьям.
Страна: Hong Kong
Студия: Shaw Brothers
Продолжительность: 01:41:23
Перевод:
Профессиональный (двухголосый закадровый) TV1000
Авторский (одноголосый закадровый) Кузнецов Сергей
Файл
Кодек: x264
Качество: BDRip 1080p
Видео: 1920x800, 11000 kbps, 23,976 fps
Звук:
Аудио #1: AC-3, 2 ch, 192 kbps (Rus) - DVO TV1000 Action
Аудио #2: AC-3, 2 ch, 192 kbps (Rus) - AVO Кузнецов Сергей
Аудио #4: AC-3, 2 ch, 192 kbps (Chi)
Субтитры: Нет

MI

x264 [info]: frame I:966 Avg QP:17.80 size:205956
x264 [info]: frame P:35795 Avg QP:21.24 size: 96141
x264 [info]: frame B:109101 Avg QP:23.03 size: 43306
x264 [info]: consecutive B-frames: 2.4% 4.9% 7.2% 43.1% 13.5% 19.7% 4.9% 3.8% 0.4% 0.1% 0.0% 0.1% 0.0%
Общее
Уникальный идентификатор : 211829036179599632602210405158306401020 (0x9F5CC9D3B946AF73B8D2AE729AEB4AFC)
Полное имя : C:TorrentВозвращение к 36-ти ступеням Шаолиня (Shao Lin da peng da shi) 1980 BDRip 1080p.mkv
Формат : Matroska
Версия формата : Version 2
Размер файла : 8,20 Гбайт
Продолжительность : 1 ч. 41 м.
Общий поток : 11,6 Мбит/сек
Дата кодирования : UTC 2015-11-03 10:10:39
Программа кодирования : mkvmerge v4.0.0 ('The Stars were mine') сборка от Jun 6 2010 16:18:42
Библиотека кодирования : libebml v1.0.0 + libmatroska v1.0.0
Видео
Идентификатор : 1
Формат : AVC
Формат/Информация : Advanced Video Codec
Профиль формата : High@L4.1
Параметр CABAC формата : Да
Параметр ReFrames формата : 5 кадров
Идентификатор кодека : V_MPEG4/ISO/AVC
Продолжительность : 1 ч. 41 м.
Битрейт : 11,0 Мбит/сек
Ширина : 1920 пикселей
Высота : 800 пикселей
Соотношение сторон : 2,40:1
Режим частоты кадров : Постоянный
Частота кадров : 23,976 кадра/сек
Цветовое пространство : YUV
Субдискретизация насыщенности : 4:2:0
Битовая глубина : 8 бит
Тип развёртки : Прогрессивная
Бит/(Пиксели*Кадры) : 0.299
Размер потока : 7,63 Гбайт (93%)
Библиотека кодирования : x264 core 146 r2538 121396c
Настройки программы : cabac=1 / ref=5 / deblock=1:-3:-3 / analyse=0x3:0x133 / me=umh / subme=10 / psy=1 / psy_rd=1.00:0.00 / mixed_ref=1 / me_range=32 / chroma_me=1 / trellis=2 / 8x8dct=1 / cqm=0 / deadzone=21,11 / fast_pskip=1 / chroma_qp_offset=-4 / threads=12 / lookahead_threads=2 / sliced_threads=0 / nr=0 / decimate=0 / interlaced=0 / bluray_compat=0 / constrained_intra=0 / bframes=12 / b_pyramid=2 / b_adapt=2 / b_bias=0 / direct=3 / weightb=1 / open_gop=0 / weightp=2 / keyint=240 / keyint_min=23 / scenecut=40 / intra_refresh=0 / rc_lookahead=40 / rc=2pass / mbtree=1 / bitrate=11000 / ratetol=1.0 / qcomp=0.60 / qpmin=0 / qpmax=69 / qpstep=4 / cplxblur=20.0 / qblur=0.5 / vbv_maxrate=50000 / vbv_bufsize=62500 / nal_hrd=none / filler=0 / ip_ratio=1.40 / aq=1:0.80
Язык : Chinese
Default : Нет
Forced : Нет
Аудио #1
Идентификатор : 2
Формат : AC-3
Формат/Информация : Audio Coding 3
Расширение режима : CM (complete main)
Параметр Endianness формата : Big
Идентификатор кодека : A_AC3
Продолжительность : 1 ч. 41 м.
Вид битрейта : Постоянный
Битрейт : 192 Кбит/сек
Каналы : 2 канала
Расположение каналов : Front: L R
Частота : 48,0 КГц
Метод сжатия : С потерями
Размер потока : 139 Мбайт (2%)
Заголовок : DVO TV1000 Action
Язык : Russian
Default : Нет
Forced : Нет
Аудио #2
Идентификатор : 3
Формат : AC-3
Формат/Информация : Audio Coding 3
Расширение режима : CM (complete main)
Параметр Endianness формата : Big
Идентификатор кодека : A_AC3
Продолжительность : 1 ч. 41 м.
Вид битрейта : Постоянный
Битрейт : 192 Кбит/сек
Каналы : 2 канала
Расположение каналов : Front: L R
Частота : 48,0 КГц
Метод сжатия : С потерями
Размер потока : 139 Мбайт (2%)
Заголовок : AVO Кузнецов Сергей
Язык : Russian
Default : Нет
Forced : Нет
Аудио #3
Идентификатор : 4
Формат : AC-3
Формат/Информация : Audio Coding 3
Расширение режима : CM (complete main)
Параметр Endianness формата : Big
Идентификатор кодека : A_AC3
Продолжительность : 1 ч. 41 м.
Вид битрейта : Постоянный
Битрейт : 192 Кбит/сек
Каналы : 2 канала
Расположение каналов : Front: L R
Частота : 48,0 КГц
Метод сжатия : С потерями
Размер потока : 139 Мбайт (2%)
Язык : Chinese
Default : Нет
Forced : Нет

Сейчас вы смотрите Возвращение к 36-ти ступеням Шаолиня / Shao Lin da peng da shi (1980) BDRip 1080p | P2, A,не забываем оставлять комментарии!
Возвращение к 36-ти ступеням Шаолиня / Shao Lin da peng da shi (1980) BDRip 1080p | P2, A [mytorrnado.ru].t117.torrent 
Torrent: Registered [ 2015-11-04 02:30 ] · E397AA52564984AF7D3FF9EF0DE9545F0D5001EE Google it!

Download .torrent

42 KB

Status: checked
Completed: 35 times
Тип торрента: Публичный  - Seed: 29;  Leeh: 29    
Size: 8.2 GB
Поделиться:
FAQ:
 
Как качать?
Как качать?
X
Скачайте торрент и откройте его в своем клиенте
uTorrent

скачать программу,
дождитесь окончания загрузки.
Если торрент закрыт? Инстркуция.
* Как смотреть?
Как смотреть?
X

Для работы Magic Player
Вам необходимо установить
Ace Stream P2P Multimedia Plug-in

Установить

Для работы Magic Player Вам необходимо включить
Ace Stream P2P Multimedia Plug-in

Инструкция
terms.php
Похожие темы




Запрещено категорически:
» Развязывать разборки (для этого есть ЛС)
» Оставлять комментарии, не относящиеся к содержанию материала.
» Добавлять спам, рекламу флуд..
К спаму относится:
1. Реклама любого направления.
2. Ссылки на сторонние ресурсы рекламного характера.
3. Ссылки на ресурсы порнографического направления.
4. Сылки на блоги и им подбным контeнтам.
» Запрещено оскорбление администрации, модераторов и пользователей.
» Часто писать с вкл. Caps Lock
»За нарушение правил бан или отключение без объяснений.
Уважайте чужой труд!

Правила могут дополняться и изменяться. С уважением Администрация.
[Profile] [PM]
Display posts    
Reply to topic

Current time is: 05-Aug 23:43

All times are UTC + 5



You cannot post new topics in this forum
You cannot reply to topics in this forum
You cannot edit your posts in this forum
You cannot delete your posts in this forum
You cannot vote in polls in this forum
You cannot attach files in this forum
You can download files in this forum










!ATTENTION!
The site does not give electronic versions of products, and is engaged only in a collecting and cataloguing of the references sent and published at a forum by our readers. If you are the legal owner of any submitted material and do not wish that the reference to it was in our catalogue, contact us and we shall immediately remove her. Files for an exchange on tracker are given by users of a site, and the administration does not bear the responsibility for their maintenance. The request to not fill in the files protected by copyrights, and also files of the illegal maintenance!