Бетховен / Beethoven (1992) WEB-DL 720p | P, A

DL-List and Torrent activity [Update ]
Size:  2.82 GB   |    Registered:  5 years 8 months   |    Completed:  58 times
Seeders:  30  [  0 KB/s  ]   Leechers:  19  [  0 KB/s  ]  
   
 
Author Message

Иваныч ®

Gender: Male

Longevity: 5 years 9 months

Posts: 8246

Наличие запрета:


Карма  175 

Location: Россия,Курган



: 19 ()

Активный релизер  (250 и более релизов) (1) Дизайн (1) За внесенный вклад в развитие сайта (1) От администрации (1)
От администрации (1) Активный релизер  (2000 релизов) (1) Реализация решений (1) Активному релизеру (5000 раздач) (1)
Активный релизер  (3000 релизов) (1) Активный релизер  (200 релизов) (1) Активный релизер (500 релизов) (1) Помощь (1)

Post 22-Nov-2015 19:51

[Quote]

Информация о фильме
Название: Бетховен
Оригинальное название: Beethoven
Год выхода: 1992
Жанр: драма, комедия, семейный
Режиссер: Брайан Левант
В ролях: Чарльз Гродин, Бонни Хант, Дин Джонс, Николь Том, Кристофер Кастиль, Сара Роуз Карр, Оливер Платт, Стэнли Туччи, Дэвид Духовны, Патриция Хитон
Описание: Герой фильма — не великий композитор, а случайно названный его именем симпатяга-сенбернар. Попав еще щенком в приютившую его семью, пес быстро подружился с детьми и их матерью — только отец поглядывал на беспокойного домочадца косо.

Страна: США
Продолжительность: 01:23:29
Перевод #1: Профессиональный (Многоголосый, Закадровый) (Премьер Видео Фильм)
Перевод #2: Авторский (Одноголосый, Закадровый) (Андрей Гаврилов)
Перевод #3: Английский (Оригинал)
Файл
Формат: MKV
Качество: WEB-DL 720p (Источник: Beethoven.1992.720p.WEB-DL.DD.2.0.H264-FGT)
Видео: 1280x716 (16:9), 25.000 fps, 4164 kbps, 0.182 bit/pixel
Аудио #1: AC-3, 2 ch, 192 kbps (Многоголосый)
Аудио #2: AC-3, 2 ch, 192 kbps (Андрей Гаврилов)
Аудио #3: AC-3, 2 ch, 192 kbps (Английский Оригинал)
Субтитры: Английские (Полные)

Скриншоты


MediaInfo

General
Unique ID : 185696148438081764928275602418453374955 (0x8BB3C6FC0BF66D78AE6549458C26E7EB)
Complete name : Beethoven.1992.WEB.DL.720p.P.A.mkv
Format : Matroska
Format version : Version 2
File size : 2.82 GiB
Duration : 1h 23mn
Overall bit rate : 4 836 Kbps
Movie name : Бетховен / Beethoven (1992) WEB-DL 720p
Encoded date : UTC 2015-11-22 08:52:16
Writing application : mkvmerge v5.6.0 ('Kenya Kane') built on May 27 2012 16:44:04
Writing library : libebml v1.2.3 + libmatroska v1.3.0
Video
ID : 1
Format : AVC
Format/Info : Advanced Video Codec
Format profile : High@L3.1
Format settings, CABAC : No
Format settings, ReFrames : 2 frames
Codec ID : V_MPEG4/ISO/AVC
Duration : 1h 23mn
Bit rate : 4 164 Kbps
Width : 1 280 pixels
Height : 716 pixels
Display aspect ratio : 16:9
Frame rate mode : Constant
Frame rate : 25.000 fps
Color space : YUV
Chroma subsampling : 4:2:0
Bit depth : 8 bits
Scan type : Progressive
Bits/(Pixel*Frame) : 0.182
Stream size : 2.43 GiB (86%)
Title : Бетховен / Beethoven (1992) WEB-DL 720p
Language : English
Default : Yes
Forced : No
Color primaries : BT.709
Transfer characteristics : BT.709
Matrix coefficients : BT.709
Color range : Limited
Audio #1
ID : 2
Format : AC-3
Format/Info : Audio Coding 3
Mode extension : CM (complete main)
Format settings, Endianness : Big
Codec ID : A_AC3
Duration : 1h 23mn
Bit rate mode : Constant
Bit rate : 192 Kbps
Channel(s) : 2 channels
Channel positions : Front: L R
Sampling rate : 48.0 KHz
Bit depth : 16 bits
Compression mode : Lossy
Stream size : 115 MiB (4%)
Title : Многоголосый 2.0 (Премьер Видео Фильм)
Language : Russian
Default : Yes
Forced : Yes
Audio #2
ID : 3
Format : AC-3
Format/Info : Audio Coding 3
Mode extension : CM (complete main)
Format settings, Endianness : Big
Codec ID : A_AC3
Duration : 1h 23mn
Bit rate mode : Constant
Bit rate : 192 Kbps
Channel(s) : 2 channels
Channel positions : Front: L R
Sampling rate : 48.0 KHz
Bit depth : 16 bits
Compression mode : Lossy
Stream size : 115 MiB (4%)
Title : Андрей Гаврилов 2.0
Language : Russian
Default : No
Forced : No
Audio #3
ID : 4
Format : AC-3
Format/Info : Audio Coding 3
Mode extension : CM (complete main)
Format settings, Endianness : Big
Codec ID : A_AC3
Duration : 1h 23mn
Bit rate mode : Constant
Bit rate : 192 Kbps
Channel(s) : 2 channels
Channel positions : Front: L R
Sampling rate : 48.0 KHz
Bit depth : 16 bits
Compression mode : Lossy
Stream size : 115 MiB (4%)
Title : Английский 2.0 (Оригинал)
Language : English
Default : No
Forced : No
Text
ID : 5
Format : UTF-8
Codec ID : S_TEXT/UTF8
Codec ID/Info : UTF-8 Plain Text
Title : Английские (Полные)
Language : English
Default : No
Forced : No
Сейчас вы смотрите Бетховен / Beethoven (1992) WEB-DL 720p | P, A,не забываем оставлять комментарии!
Бетховен / Beethoven (1992) WEB-DL 720p | P, A [mytorrnado.ru].t1271.torrent 
Torrent: Registered [ 2015-11-22 19:51 ] · 0D0F89DF0C20DB87FAD5D5D00AD2CCC103C8ED0A Google it!

Download .torrent

15 KB

Status: checked
Completed: 58 times
Тип торрента: Публичный  - Seed: 30;  Leeh: 19    
Size: 2.82 GB
Поделиться:
FAQ:
 
Как качать?
Как качать?
X
Скачайте торрент и откройте его в своем клиенте
uTorrent

скачать программу,
дождитесь окончания загрузки.
Если торрент закрыт? Инстркуция.
* Как смотреть?
Как смотреть?
X

Для работы Magic Player
Вам необходимо установить
Ace Stream P2P Multimedia Plug-in

Установить

Для работы Magic Player Вам необходимо включить
Ace Stream P2P Multimedia Plug-in

Инструкция
terms.php
Похожие темы




Запрещено категорически:
» Развязывать разборки (для этого есть ЛС)
» Оставлять комментарии, не относящиеся к содержанию материала.
» Добавлять спам, рекламу флуд..
К спаму относится:
1. Реклама любого направления.
2. Ссылки на сторонние ресурсы рекламного характера.
3. Ссылки на ресурсы порнографического направления.
4. Сылки на блоги и им подбным контeнтам.
» Запрещено оскорбление администрации, модераторов и пользователей.
» Часто писать с вкл. Caps Lock
»За нарушение правил бан или отключение без объяснений.
Уважайте чужой труд!

Правила могут дополняться и изменяться. С уважением Администрация.
[Profile] [PM]
Display posts    
Reply to topic

Current time is: 05-Aug 23:48

All times are UTC + 5



You cannot post new topics in this forum
You cannot reply to topics in this forum
You cannot edit your posts in this forum
You cannot delete your posts in this forum
You cannot vote in polls in this forum
You cannot attach files in this forum
You can download files in this forum










!ATTENTION!
The site does not give electronic versions of products, and is engaged only in a collecting and cataloguing of the references sent and published at a forum by our readers. If you are the legal owner of any submitted material and do not wish that the reference to it was in our catalogue, contact us and we shall immediately remove her. Files for an exchange on tracker are given by users of a site, and the administration does not bear the responsibility for their maintenance. The request to not fill in the files protected by copyrights, and also files of the illegal maintenance!