Здравствуй, Москва! (1945) DVDRip от New-Team

DL-List and Torrent activity [Update ]
Size:  1.46 GB   |    Registered:  5 years 8 months   |    Completed:  40 times

Seeder not seen: Never

 
 
 
 
Author Message

Иваныч ®

Gender: Male

Longevity: 5 years 8 months

Posts: 8200

Наличие запрета:


Карма  175 

Location: Россия,Курган



: 19 ()

Активному релизеру (5000 раздач) (1) Активный релизер  (250 и более релизов) (1) Помощь (1) Активисту (1)
Активный релизер  (1000 релизов) (1) От администрации (1) Реализация решений (1) Активный релизер  (50 релизов) (1)
Техпддержка (1) Дизайн (1) Активный релизер  (3000 релизов) (1) За внесенный вклад в развитие сайта (1)

Post 22-Nov-2015 21:53

[Quote]

Страна: СССР
Производство: Мосфильм
Жанр: мюзикл, комедия
Год выпуска: 1945
Продолжительность: 01:35:22
Перевод: Не требуется
Cубтитры: нет
Оригинальная аудиодорожка: русский
Режиссер: Сергей Юткевич
В ролях:
Сергей Филиппов, Павел Кадочников, Николай Леонов, Иван Любезнов, Василий Селезнев, Александр Ширшов, Анна Стравинская, Борис Тенин, Леонид Пирогов, Георгий Вицин...
Описание:
На смотре художественной самодеятельности мальчуган, аккомпанируя себе на баяне, поёт песню о Москве... В основе сюжета фильма — рассказ директора ремесленного училища об истории этого баяна. Принадлежавший когда-то кадровому рабочему, погибшему во время демонстрации 1905 года, инструмент побывал во многих руках, прежде чем попал к ребятам. В фильме, несмотря на его внешнюю простоту, много остроумных диалогов и замечаний. Авторы сценария — известные сатирики Михаил Вольпин и Николай Эрдман, незадолго до войны освобождённые из лагерей. А «Московский вальс» Анатолия Лепина заслуженно вошёл в отечественную песенную классику. Все музыкальные и танцевальные номера и все детские роли исполняют учащиеся ремесленных и железнодорожных училищ и школ ФЗО, а также школьники г. Москвы…- -Источник: DVD5 R5
Качество видео: DVDRip
Формат видео: AVI
Видео: 672x512 (4:3), 25 fps, XviD ~ 1989 kbps avg, 0.231 bit/pixel
Аудио: 48 kHz, Dolby Digital AC3 2.0, 192 kbps
Раздача от:

MediaInfo

Общее
Полное имя : Zdravstvuy,Moskva!1945.DVDRip_[New-team]_by_AVP_Studio.avi
Формат : AVI
Формат/Информация : Audio Video Interleave
Размер файла : 1,46 Гбайт
Продолжительность : 1 ч. 35 м.
Общий поток : 2190 Кбит/сек
Программа кодирования : VirtualDubModRus 1.5.10.2 (build 2542/release)
Библиотека кодирования : VirtualDubMod build 2542/release
Видео
Идентификатор : 0
Формат : MPEG-4 Visual
Профиль формата : Advanced Simple@L5
Параметр BVOP формата : 1
Параметр QPel формата : Нет
Параметр GMC формата : Без точки перехода
Параметр матрицы формата : Выборочная
Идентификатор кодека : XVID
Идентификатор кодека/Подсказка : XviD
Продолжительность : 1 ч. 35 м.
Битрейт : 1989 Кбит/сек
Ширина : 672 пикселя
Высота : 512 пикселей
Соотношение сторон : 4:3
Частота кадров : 25,000 кадров/сек
Цветовое пространство : YUV
Субдискретизация насыщенности : 4:2:0
Битовая глубина : 8 бит
Тип развёртки : Прогрессивная
Метод сжатия : С потерями
Бит/(Пиксели*Кадры) : 0.231
Размер потока : 1,32 Гбайт (91%)
Библиотека кодирования : XviD 73
Аудио
Идентификатор : 1
Формат : AC-3
Формат/Информация : Audio Coding 3
Расширение режима : CM (complete main)
Параметр Endianness формата : Big
Идентификатор кодека : 2000
Продолжительность : 1 ч. 35 м.
Вид битрейта : Постоянный
Битрейт : 192 Кбит/сек
Каналы : 2 канала
Расположение каналов : Front: L R
Частота : 48,0 КГц
Битовая глубина : 16 бит
Метод сжатия : С потерями
Размер потока : 131 Мбайт (9%)
Выравнивание : Разделение по промежуткам
Продолжительность промежутка : 40 мс. (1,00 видеокадр)
Время предзагрузки промежутка : 500 мс

Скриншоты

Сейчас вы смотрите Здравствуй, Москва! (1945) DVDRip от New-Team,не забываем оставлять комментарии!
Здравствуй, Москва! (1945) DVDRip от New-Team [mytorrnado.ru].t1282.torrent 
Torrent: Registered [ 2015-11-22 21:53 ] · B84624BA3C2106F3A2F69222D67741632A730EC8 Google it!

Download .torrent

16 KB

Status: checked
Completed: 40 times
Тип торрента:    
Size: 1.46 GB
Поделиться:
FAQ:
 
Как качать?
Как качать?
X
Скачайте торрент и откройте его в своем клиенте
uTorrent

скачать программу,
дождитесь окончания загрузки.
Если торрент закрыт? Инстркуция.
* Как смотреть?
Как смотреть?
X

Для работы Magic Player
Вам необходимо установить
Ace Stream P2P Multimedia Plug-in

Установить

Для работы Magic Player Вам необходимо включить
Ace Stream P2P Multimedia Plug-in

Инструкция
terms.php
Похожие темы




Запрещено категорически:
» Развязывать разборки (для этого есть ЛС)
» Оставлять комментарии, не относящиеся к содержанию материала.
» Добавлять спам, рекламу флуд..
К спаму относится:
1. Реклама любого направления.
2. Ссылки на сторонние ресурсы рекламного характера.
3. Ссылки на ресурсы порнографического направления.
4. Сылки на блоги и им подбным контeнтам.
» Запрещено оскорбление администрации, модераторов и пользователей.
» Часто писать с вкл. Caps Lock
»За нарушение правил бан или отключение без объяснений.
Уважайте чужой труд!

Правила могут дополняться и изменяться. С уважением Администрация.
[Profile] [PM]
Display posts    
Reply to topic

Current time is: 24-Jul 10:38

All times are UTC + 5



You cannot post new topics in this forum
You cannot reply to topics in this forum
You cannot edit your posts in this forum
You cannot delete your posts in this forum
You cannot vote in polls in this forum
You cannot attach files in this forum
You can download files in this forum










!ATTENTION!
The site does not give electronic versions of products, and is engaged only in a collecting and cataloguing of the references sent and published at a forum by our readers. If you are the legal owner of any submitted material and do not wish that the reference to it was in our catalogue, contact us and we shall immediately remove her. Files for an exchange on tracker are given by users of a site, and the administration does not bear the responsibility for their maintenance. The request to not fill in the files protected by copyrights, and also files of the illegal maintenance!