Кащей Бессмертный (1944 / 2014) WEB-DL [H.264/1080p-­LQ] [Цветной / MultiSub]

DL-List and Torrent activity [Update ]
Size:  4.49 GB   |    Registered:  4 months 27 days   |    Completed:  34 times
Seeders:  19  [  0 KB/s  ]   Leechers:  3  [  0 KB/s  ]  
 
     
 
 
Author Message

Иваныч ®

Gender: Male

Longevity: 5 years 8 months

Posts: 8208

Наличие запрета:


Карма  175 

Location: Россия,Курган



: 19 ()

Активный релизер  (150 релизов) (1) Техпддержка (1) От администрации (1) Активисту (1)
Активному релизеру (5000 раздач) (1) Активный релизер  (200 релизов) (1) Активный релизер (500 релизов) (1) От администрации (1)
Реализация решений (1) Помощь (1) За внесенный вклад в развитие сайта (1) Активный релизер  (2000 релизов) (1)

Post 26-Feb-2021 21:10

[Quote]

Название » Кащей Бессмертный
Год выпуска » 1944 / 2014
Страна »  СССР
Жанр » Детский, сказка
Продолжительность » 01:03:20
Перевод » Не требуется
Субтитры » Русские, Английские, Французские, Немецкие, Испанские, Итальянские- В ролях » Александр Ширшов, Георгий Милляр, Сергей Столяров, Галина Григорьева, Сергей Филиппов, Эммануил Геллер, Леонид Кровицкий, Иван Рыжов, Сергей Троицкий
Режиссёр » Александр Роу- Описание » Эпическая сказка, снятая в годы Второй Мировой войны. Русские богатыри Никита Кожемяка и Булат Балагур спасают землю русскую от вражьих полчищ Кащея Бессмертного и освобождают красавицу Марью Моревну.
- - Качество »  WEB-DL
Формат » MKV
Видео » AVC/H.264, 1440x1080, ~9 905 kbps
Аудио » AC3, 2 ch, 224 kbps, Русский

Медиа инфо:

General
Unique ID : 189911215584522040561462913507391915860 (0x8EDF91D700870987A1CDBE9BC6F74754)
Complete name : D:\Torrent_Download\Kashchey_Bessmertnyy_1944_RUS_1080p_COLOR_MultiSub.mkv
Format : Matroska
Format version : Version 4
File size : 4.49 GiB
Duration : 1 h 3 min
Overall bit rate : 10.1 Mb/s
Encoded date : UTC 2021-02-04 01:47:12
Writing application : mkvmerge v8.4.0 ('A better way to fly') 32bit
Writing library : libebml v1.3.1 + libmatroska v1.4.2
Video
ID : 1
Format : AVC
Format/Info : Advanced Video Codec
Format profile : High@L4
Format settings : CABAC / 4 Ref Frames
Format settings, CABAC : Yes
Format settings, Reference frames : 4 frames
Codec ID : V_MPEG4/ISO/AVC
Duration : 1 h 3 min
Bit rate : 9 905 kb/s
Width : 1 440 pixels
Height : 1 080 pixels
Display aspect ratio : 4:3
Frame rate mode : Constant
Frame rate : 25.000 FPS
Color space : YUV
Chroma subsampling : 4:2:0
Bit depth : 8 bits
Scan type : Progressive
Bits/(Pixel*Frame) : 0.255
Stream size : 4.38 GiB (98%)
Language : English
Default : Yes
Forced : No
Color range : Limited
Color primaries : BT.709
Transfer characteristics : BT.709
Matrix coefficients : BT.709
Audio
ID : 2
Format : E-AC-3
Format/Info : Enhanced AC-3
Commercial name : Dolby Digital Plus
Codec ID : A_EAC3
Duration : 1 h 3 min
Bit rate mode : Constant
Bit rate : 224 kb/s
Channel(s) : 2 channels
Channel layout : L R
Sampling rate : 48.0 kHz
Frame rate : 31.250 FPS (1536 SPF)
Compression mode : Lossy
Stream size : 101 MiB (2%)
Language : Russian
Service kind : Complete Main
Default : Yes
Forced : No
Text #1
ID : 3
Format : VobSub
Muxing mode : zlib
Codec ID : S_VOBSUB
Codec ID/Info : Picture based subtitle format used on DVDs
Duration : 1 h 3 min
Bit rate : 936 b/s
Count of elements : 419
Stream size : 435 KiB (0%)
Title : Russian
Language : Russian
Default : Yes
Forced : No
Text #2
ID : 4
Format : VobSub
Muxing mode : zlib
Codec ID : S_VOBSUB
Codec ID/Info : Picture based subtitle format used on DVDs
Duration : 1 h 3 min
Bit rate : 1 136 b/s
Count of elements : 419
Stream size : 528 KiB (0%)
Title : English
Language : English
Default : No
Forced : No
Text #3
ID : 5
Format : VobSub
Muxing mode : zlib
Codec ID : S_VOBSUB
Codec ID/Info : Picture based subtitle format used on DVDs
Duration : 1 h 3 min
Bit rate : 1 027 b/s
Count of elements : 419
Stream size : 477 KiB (0%)
Title : French
Language : French
Default : No
Forced : No
Text #4
ID : 6
Format : VobSub
Muxing mode : zlib
Codec ID : S_VOBSUB
Codec ID/Info : Picture based subtitle format used on DVDs
Duration : 1 h 3 min
Bit rate : 1 125 b/s
Count of elements : 419
Stream size : 523 KiB (0%)
Title : German
Language : German
Default : No
Forced : No
Text #5
ID : 7
Format : VobSub
Muxing mode : zlib
Codec ID : S_VOBSUB
Codec ID/Info : Picture based subtitle format used on DVDs
Duration : 1 h 3 min
Bit rate : 1 124 b/s
Count of elements : 419
Stream size : 522 KiB (0%)
Title : Spanish
Language : Spanish
Default : No
Forced : No
Text #6
ID : 8
Format : VobSub
Muxing mode : zlib
Codec ID : S_VOBSUB
Codec ID/Info : Picture based subtitle format used on DVDs
Duration : 1 h 3 min
Bit rate : 1 016 b/s
Count of elements : 419
Stream size : 472 KiB (0%)
Title : Italiano
Language : Italian
Default : No
Forced : No
Сейчас вы смотрите Кащей Бессмертный (1944 / 2014) WEB-DL [H.264/1080p-­LQ] [Цветной / MultiSub],не забываем оставлять комментарии!
Кащей Бессмертный (1944 / 2014) WEB-DL [H.264/1080p-­LQ] [Цветной / MultiSub] [mytorrnado.ru].t13669.torrent 
 GOLD TORRENT! DOWNLOAD TRAFFIC DOES NOT CONSIDER! 
Torrent: Registered [ 2021-02-26 21:10 ] · 7BD2071F7ED6ECE716EDD9903BC5AFAB71E1C9F2 Google it!

Download .torrent

12 KB

Status: checked
Completed: 34 times
Тип торрента: Публичный  - Seed: 19;  Leeh: 3    
Size: 4.49 GB
Поделиться:
FAQ:
 
Как качать?
Как качать?
X
Скачайте торрент и откройте его в своем клиенте
uTorrent

скачать программу,
дождитесь окончания загрузки.
Если торрент закрыт? Инстркуция.
* Как смотреть?
Как смотреть?
X

Для работы Magic Player
Вам необходимо установить
Ace Stream P2P Multimedia Plug-in

Установить

Для работы Magic Player Вам необходимо включить
Ace Stream P2P Multimedia Plug-in

Инструкция
terms.php
Похожие темы




Запрещено категорически:
» Развязывать разборки (для этого есть ЛС)
» Оставлять комментарии, не относящиеся к содержанию материала.
» Добавлять спам, рекламу флуд..
К спаму относится:
1. Реклама любого направления.
2. Ссылки на сторонние ресурсы рекламного характера.
3. Ссылки на ресурсы порнографического направления.
4. Сылки на блоги и им подбным контeнтам.
» Запрещено оскорбление администрации, модераторов и пользователей.
» Часто писать с вкл. Caps Lock
»За нарушение правил бан или отключение без объяснений.
Уважайте чужой труд!

Правила могут дополняться и изменяться. С уважением Администрация.
[Profile] [PM]
Display posts    
Reply to topic

Current time is: 26-Jul 00:29

All times are UTC + 5



You cannot post new topics in this forum
You cannot reply to topics in this forum
You cannot edit your posts in this forum
You cannot delete your posts in this forum
You cannot vote in polls in this forum
You cannot attach files in this forum
You can download files in this forum










!ATTENTION!
The site does not give electronic versions of products, and is engaged only in a collecting and cataloguing of the references sent and published at a forum by our readers. If you are the legal owner of any submitted material and do not wish that the reference to it was in our catalogue, contact us and we shall immediately remove her. Files for an exchange on tracker are given by users of a site, and the administration does not bear the responsibility for their maintenance. The request to not fill in the files protected by copyrights, and also files of the illegal maintenance!