Потерянный отпуск / Lost Holiday: The Jim & Suzanne Shemwell Story (2007) SATRip | P

DL-List and Torrent activity [Update ]
Size:  1.37 GB   |    Registered:  5 years 7 months   |    Completed:  31 times
Seeders:  10  [  0 KB/s  ]   Leechers:  8  [  0 KB/s  ]  
   
 
Author Message

Иваныч ®

Gender: Male

Longevity: 5 years 8 months

Posts: 8198

Наличие запрета:


Карма  175 

Location: Россия,Курган



: 19 ()

Активному релизеру (5000 раздач) (1) Техпддержка (1) Активисту (1) Помощь (1)
За внесенный вклад в развитие сайта (1) Активный релизер  (100 релизов) (1) Активный релизер  (50 релизов) (1) Реализация решений (1)
Активный релизер  (150 релизов) (1) Активный релизер (500 релизов) (1) Активный релизер  (200 релизов) (1) Дизайн (1)

Post 24-Nov-2015 14:53

[Quote]

Информация о фильме
Название: Потерянный отпуск
Оригинальное название: Lost Holiday: The Jim & Suzanne Shemwell Story
Год выхода: 2007
Жанр: драма
Режиссер: Грегори Гуделл
В ролях: Джейми Герц, Дилан Уолш, Аарон Перл, Джулия Максвелл, Бруклин Пру, Алекс Арсено, Джудит Бучан, Джо Норман Шоу, Шая Киблер, Брайан Мартелл
Описание: Сюзанна и находящийся у нее в гостях бывший муж Джим едут кататься на снегоходах и попадают в метель. Их дети организовывают добровольные поисковые отряды, но следов родителей обнаружить не удается. Тем временем измученным голодом и усталостью Джиму и Сюзанне приходится вместе справляться со всеми навалившимися бедами…

Страна: США
Продолжительность: 01:24:48
Перевод: Профессиональный (многоголосый закадровый) - Кинопоказ
Файл
Формат: AVI
Качество: SATRip
Видео: 720x400, (16/9), XviD, 2110 Кбит/сек, 25,000 кадров/сек
Аудио: AC3, 192 Кбит/сек, 2 канала, 48,0 КГц

Скриншоты:

MediaInfo:

Общее
Полное имя : J:Потерянный отпуск.avi
Формат : AVI
Формат/Информация : Audio Video Interleave
Размер файла : 1,37 Гбайт
Продолжительность : 1 ч. 24 м.
Общий поток : 2312 Кбит/сек
Название фильма : Потерянный отпуск / Lost Holiday: The Jim & Suzanne Shemwell Story (2007)
Программа кодирования : VirtualDubMod 1.5.10.2 (build 2540/release)
Библиотека кодирования : VirtualDubMod build 2540/release
Видео
Идентификатор : 0
Формат : MPEG-4 Visual
Профиль формата : Advanced Simple@L5
Параметр BVOP формата : 2
Параметр QPel формата : Нет
Параметр GMC формата : Без точки перехода
Параметр матрицы формата : Default (MPEG)
Идентификатор кодека : XVID
Идентификатор кодека/Подсказка : XviD
Продолжительность : 1 ч. 24 м.
Битрейт : 2110 Кбит/сек
Ширина : 720 пикселей
Высота : 400 пикселей
Соотношение сторон : 16:9
Частота кадров : 25,000 кадров/сек
Цветовое пространство : YUV
Субдискретизация насыщенности : 4:2:0
Битовая глубина : 8 бит
Тип развёртки : Прогрессивная
Метод сжатия : С потерями
Бит/(Пиксели*Кадры) : 0.293
Размер потока : 1,25 Гбайт (91%)
Библиотека кодирования : XviD 1.1.0 (UTC 2005-11-22)
Аудио
Идентификатор : 1
Формат : AC-3
Формат/Информация : Audio Coding 3
Расширение режима : CM (complete main)
Параметр Endianness формата : Big
Идентификатор кодека : 2000
Продолжительность : 1 ч. 24 м.
Вид битрейта : Постоянный
Битрейт : 192 Кбит/сек
Каналы : 2 канала
Расположение каналов : Front: L R
Частота : 48,0 КГц
Битовая глубина : 16 бит
Метод сжатия : С потерями
Размер потока : 116 Мбайт (8%)
Выравнивание : Разделение по промежуткам
Продолжительность промежутка : 40 мс. (1,00 видеокадр)
Время предзагрузки промежутка : 500 мс.
Заголовок : Профессиональный (многоголосый закадровый)
Сейчас вы смотрите Потерянный отпуск / Lost Holiday: The Jim & Suzanne Shemwell Story (2007) SATRip | P,не забываем оставлять комментарии!
Потерянный отпуск / Lost Holiday: The Jim & Suzanne Shemwell Story (2007) SATRip | P [mytorrnado.ru].t1372.torrent 
Torrent: Registered [ 2015-11-24 14:53 ] · 63C1A384A7B3965C98920B366BF49200C942EF0B Google it!

Download .torrent

14 KB

Status: checked
Completed: 31 times
Тип торрента: Публичный  - Seed: 10;  Leeh: 8    
Size: 1.37 GB
Поделиться:
FAQ:
 
Как качать?
Как качать?
X
Скачайте торрент и откройте его в своем клиенте
uTorrent

скачать программу,
дождитесь окончания загрузки.
Если торрент закрыт? Инстркуция.
* Как смотреть?
Как смотреть?
X

Для работы Magic Player
Вам необходимо установить
Ace Stream P2P Multimedia Plug-in

Установить

Для работы Magic Player Вам необходимо включить
Ace Stream P2P Multimedia Plug-in

Инструкция
terms.php
Похожие темы




Запрещено категорически:
» Развязывать разборки (для этого есть ЛС)
» Оставлять комментарии, не относящиеся к содержанию материала.
» Добавлять спам, рекламу флуд..
К спаму относится:
1. Реклама любого направления.
2. Ссылки на сторонние ресурсы рекламного характера.
3. Ссылки на ресурсы порнографического направления.
4. Сылки на блоги и им подбным контeнтам.
» Запрещено оскорбление администрации, модераторов и пользователей.
» Часто писать с вкл. Caps Lock
»За нарушение правил бан или отключение без объяснений.
Уважайте чужой труд!

Правила могут дополняться и изменяться. С уважением Администрация.
[Profile] [PM]
Display posts    
Reply to topic

Current time is: 24-Jul 09:05

All times are UTC + 5



You cannot post new topics in this forum
You cannot reply to topics in this forum
You cannot edit your posts in this forum
You cannot delete your posts in this forum
You cannot vote in polls in this forum
You cannot attach files in this forum
You can download files in this forum










!ATTENTION!
The site does not give electronic versions of products, and is engaged only in a collecting and cataloguing of the references sent and published at a forum by our readers. If you are the legal owner of any submitted material and do not wish that the reference to it was in our catalogue, contact us and we shall immediately remove her. Files for an exchange on tracker are given by users of a site, and the administration does not bear the responsibility for their maintenance. The request to not fill in the files protected by copyrights, and also files of the illegal maintenance!