Алоха / Aloha (Камерон Кроу / Cameron Crowe) [2015, США, Драма, Мелодрама, Комедия, HDRip] Dub (iTunes)

DL-List and Torrent activity [Update ]
Size:  1.45 GB   |    Registered:  5 years 8 months   |    Completed:  25 times

Seeder not seen: Never

 
 
 
 
Author Message

***DrJoker*** ®

Gender: Male

Longevity: 5 years 8 months

Posts: 1378

Наличие запрета:


Карма  140 

Location: Россия



: 13 ()

Активисту (1) Активный релизер  (200 релизов) (1) Самый скачиваемый релиз (1) Активный релизер  (150 релизов) (1)
Помощь (1) Реализация решений (1) Активный релизер  (100 релизов) (1) От администрации (1)
Активный релизер  (1000 релизов) (1) Активный релизер (500 релизов) (1) Активный релизер  (250 и более релизов) (1) За внесенный вклад в развитие сайта (1)

Post 25-Nov-2015 13:36

[Quote]

Алоха
Aloha
-Год выпуска: 2015
Страна: США
Жанр: Драма, Мелодрама, Комедия
Продолжительность: 01:44:38
Перевод: Профессиональное (дублированный) [iTunes]
Субтитры: нет
Оригинальная аудиодорожка: нет-Режиссер: Камерон Кроу / Cameron Crowe-В ролях: Брэдли Купер, Эмма Стоун, Рэйчел Макадамс, Алек Болдуин, Билл Мюррей, Джон Красински, Дэнни МакБрайд, Билл Кэмп, Джейден Либерер, Даниэль Роуз Расселл, Ивана Миличевич-Описание: 37-летний дискредитированный американский консультант по оружию Брайн Джилкрест не нравится практически всем окружающим его людям. Его единственный друг — техник по имени Джереми — супер умный и хорошо осведомленный компьютерщик.
В ответ на агрессию со стороны Китая Джилкреста отправляют на бездействующую военную базу на Гавайях, чтобы оттуда он контролировал запуск современного спутника-шпиона. Это задание сведет его с девушкой по имени Трейси…- -Семпл: http://multi-up.com/1067351-Качество видео: HDRip (исходник BDRip 720p)
Формат видео: AVI
Видео: 720x384 (1.88:1), 23.976 fps, XviD build 50 ~1596 kbps avg, 0.24 bit/pixel
Аудио: 48 kHz, AC3 Dolby Digital, 3/2 (L,C,R,l,r) + LFE ch, ~384 kbps-

MediaInfo

General
Complete name : Aloha.2015.D.HDRip.avi
Format : AVI
Format/Info : Audio Video Interleave
File size : 1.45 GiB
Duration : 1h 44mn
Overall bit rate : 1 990 Kbps
Writing application : VirtualDubMod 1.5.10.3 | www.virtualdub-fr.org || (build 2550/release)
Writing library : VirtualDubMod build 2550/release
Video
ID : 0
Format : MPEG-4 Visual
Format profile : Advanced Simple@L5
Format settings, BVOP : 2
Format settings, QPel : No
Format settings, GMC : No warppoints
Format settings, Matrix : Default (MPEG)
Codec ID : XVID
Codec ID/Hint : XviD
Duration : 1h 44mn
Bit rate : 1 597 Kbps
Width : 720 pixels
Height : 384 pixels
Display aspect ratio : 1.85:1
Frame rate : 23.976 fps
Color space : YUV
Chroma subsampling : 4:2:0
Bit depth : 8 bits
Scan type : Progressive
Compression mode : Lossy
Bits/(Pixel*Frame) : 0.241
Stream size : 1.17 GiB (80%)
Writing library : XviD 1.2.1 (UTC 2008-12-04)
Audio
ID : 1
Format : AC-3
Format/Info : Audio Coding 3
Mode extension : CM (complete main)
Format settings, Endianness : Big
Codec ID : 2000
Duration : 1h 44mn
Bit rate mode : Constant
Bit rate : 384 Kbps
Channel(s) : 6 channels
Channel positions : Front: L C R, Side: L R, LFE
Sampling rate : 48.0 KHz
Compression mode : Lossy
Stream size : 287 MiB (19%)
Alignment : Split accross interleaves
Interleave, duration : 42 ms (1.00 video frame)
Interleave, preload duratio : 500 ms

Скриншоты



Сейчас вы смотрите Алоха / Aloha (Камерон Кроу / Cameron Crowe) [2015, США, Драма, Мелодрама, Комедия, HDRip] Dub (iTunes),не забываем оставлять комментарии!
Алоха / Aloha (Камерон Кроу / Cameron Crowe) [2015, США, Драма, Мелодрама, Комедия, HDRip] Dub (iTunes) [mytorrnado.ru].t1411.torrent 
Torrent: Registered [ 2015-11-25 13:36 ] · E6589942E2978F5463CFC6E2693A3032FC0720D2 Google it!

Download .torrent

15 KB

Status: checked
Completed: 25 times
Тип торрента:    
Size: 1.45 GB
Поделиться:
FAQ:
 
Как качать?
Как качать?
X
Скачайте торрент и откройте его в своем клиенте
uTorrent

скачать программу,
дождитесь окончания загрузки.
Если торрент закрыт? Инстркуция.
* Как смотреть?
Как смотреть?
X

Для работы Magic Player
Вам необходимо установить
Ace Stream P2P Multimedia Plug-in

Установить

Для работы Magic Player Вам необходимо включить
Ace Stream P2P Multimedia Plug-in

Инструкция
terms.php




Запрещено категорически:
» Развязывать разборки (для этого есть ЛС)
» Оставлять комментарии, не относящиеся к содержанию материала.
» Добавлять спам, рекламу флуд..
К спаму относится:
1. Реклама любого направления.
2. Ссылки на сторонние ресурсы рекламного характера.
3. Ссылки на ресурсы порнографического направления.
4. Сылки на блоги и им подбным контeнтам.
» Запрещено оскорбление администрации, модераторов и пользователей.
» Часто писать с вкл. Caps Lock
»За нарушение правил бан или отключение без объяснений.
Уважайте чужой труд!

Правила могут дополняться и изменяться. С уважением Администрация.
[Profile] [PM]
Display posts    
Reply to topic

Current time is: 29-Jul 17:16

All times are UTC + 5



You cannot post new topics in this forum
You cannot reply to topics in this forum
You cannot edit your posts in this forum
You cannot delete your posts in this forum
You cannot vote in polls in this forum
You cannot attach files in this forum
You can download files in this forum










!ATTENTION!
The site does not give electronic versions of products, and is engaged only in a collecting and cataloguing of the references sent and published at a forum by our readers. If you are the legal owner of any submitted material and do not wish that the reference to it was in our catalogue, contact us and we shall immediately remove her. Files for an exchange on tracker are given by users of a site, and the administration does not bear the responsibility for their maintenance. The request to not fill in the files protected by copyrights, and also files of the illegal maintenance!