Сообщения без ответов | Активные темы Непрочитанные сообщения




Начать новую тему Ответить на тему  [ 1 сообщение ] 
Статистика раздачи
Размер|   13.48 ГБ    |   14 473 887 982 байт   
Раздают|   8   Качают|   0      
Последний личер: |  назад  | (Google it!)
Автор Сообщение
Непрочитанное сообщениеДобавлено: 06 окт 2019, 15:36 
Не в сети
Модератор
Модератор
Раздал: 6.05 ТБ
Скачал: 0 байт
Ратио: Seed.


Зарегистрирован: 07 июл 2019, 00:10
Сообщения: 44
Баллы репутации: 10
За самый скачиваемый релиз
Медали: 1
Повшение до модератора (1)
Блудный сын / Prodigal Son Сезон 1 , Серия 1-4 из 10



Год выпуска: 2019
Выпущено: США, Berlanti Productions, VHPT! Co., FOX Entertainment, Warner Bros. Television
Жанр: Драма, криминал
Продолжительность: 00:45:00
Сезон: 1
Серия:1-4
Количество серий в сезоне:10

Озвучка #1: Профессиональный многоголосый - LostFilm - Русский

Озвучка #2: Профессиональный многоголосый - TVShows - Русский

Озвучка #3: Профессиональный многоголосый - NewStudio - Русский

Озвучка #4: Профессиональный многоголосый - HDRezka Studio - Русский

Озвучка #5: Профессиональный многоголосый -Английский - Оригинал

Субтитры: Russian , English


Релиз Без Рекламы


MDB 7.7 Кинопоиск

Режиссеры:
Ли Толанд Кригер

В ролях: : Том Пэйн, Майкл Шин, Кейко Аджена, Джузеппе Ардиззоне, Каран Чаудри, Мэттью Грир, Фрэнк Хартс, Шоу Джонс, Эд Моран, Аврора Перрино


Криминальный психолог Малкольм Брайт лучше всех разбирается в поведении маньяков и составляет на них досье. Как так получилось? Дело в том, что его родной отец — серийный убийца по кличке Хирург. Малкольму предстоит консультироваться с папой по поводу новых дел и параллельно самому не сойти с ума.




Качество :WEB-DLRip 1080p
Формат: MKV
Видео кодек: H264
Видео: 8089Кбит/сек,1920х960(2.000),в 23.976кадр/сек,AVC (High@L4)(CABAC/4 Ref Frames)

Аудио Кодек:AC3

Аудио #1:MVO LostFilm @DD5.1 AC3, 640 Kbps, 48.0 KHz, 6 ch- Lostfilm -Русский

Аудио #2:MVO TVShows @DD5.1 AC3, 384 Kbps, 48.0 KHz, 6 ch-TVShows -Русский

Аудио #3:MVO NewStudio @DD5.1 AC3, 384 Kbps, 48.0 KHz, 6 ch-NewStudio -Русский

Аудио #4:MVO HDRezka Studio @DD5.1 AC3, 384 Kbps, 48.0 KHz, 6 ch-HDRezka Studio -Русский

Аудио #5: Original@DD5.1 E-AC3 ,640 Kbps, 48.0 KHz, 6 ch - English - Оригинал

Звуковая дорожка сделана путем наложения чистого голоса озвучивателей на центральный канал оригинальной дорожки. Качество идентично звуковой дорожке.



1 сезон 1 серия - Пилот - Pilot
1 сезон 2 серия - Истребитель - Annihilator
1 сезон 3 серия - Реакция на страх - Fear Response
1 сезон 4 серия - Стильное соучастие - Designer Complicity



Общее
Уникальный идентификатор : 209984958694349233297597775570474262176 (0x9DF9A1C993220361703CFB68952A5EA0)
Полное имя : C:\Users\Russian Patriot\Downloads\Блудный сын - Prodigal Son\Prodigal.Son_2019_S01_Н264_DD5.1_N.B_HD_1080_4xRus_Eng\Prodigal.Son_2019_S01E01_Н264_DD5.1_N.B_HD_1080_4xRus_Eng.mkv
Формат : Matroska
Версия формата : Version 4
Размер файла : 3,35 Гбайт
Продолжительность : 45 м. 34 с.
Общий поток : 10,5 Мбит/сек
Название фильма : Prodigal Son 2019 S01E01 @ Nikolai.Baranov & PIRATIYA
Дата кодирования : UTC 2019-10-05 14:45:24
Программа кодирования : mkvmerge v37.0.0 ('Leave It') 64-bit
Библиотека кодирования : libebml v1.3.9 + libmatroska v1.5.2 / Lavf58.20.100

Видео
Идентификатор : 1
Формат : AVC
Формат/Информация : Advanced Video Codec
Профиль формата : High@L4
Настройки формата : CABAC / 4 Ref Frames
Параметр CABAC формата : Да
Параметр RefFrames формата : 4 кадра
Идентификатор кодека : V_MPEG4/ISO/AVC
Продолжительность : 45 м. 34 с.
Вид битрейта : Постоянный
Битрейт : 8089 Кбит/сек
Номинальный битрейт : 10000 Кбит/сек
Ширина : 1920 пикселей
Высота : 960 пикселей
Соотношение сторон : 2,000
Режим частоты кадров : Постоянный
Частота кадров : 23,976 (24000/1001) кадра/сек
Цветовое пространство : YUV
Субдискретизация насыщенности : 4:2:0
Битовая глубина : 8 бит
Тип развёртки : Прогрессивная
Бит/(Пиксели*Кадры) : 0.183
Размер потока : 2,58 Гбайт (77%)
Заголовок : Prodigal.Son_2019_S01E01_Н264_DD5.1_N.B_HD_1080_4xRus_Eng
Язык : Russian
Default : Да
Forced : Нет
Цветовой диапазон : Limited
Основные цвета : BT.709
Характеристики трансфера : BT.709
Коэффициенты матрицы : BT.709

Аудио #1
Идентификатор : 6
Формат : AC-3
Формат/Информация : Audio Coding 3
Коммерческое название : Dolby Digital
Идентификатор кодека : A_AC3
Продолжительность : 45 м. 30 с.
Вид битрейта : Постоянный
Битрейт : 640 Кбит/сек
Каналы : 6 каналов
ChannelLayout : L R C LFE Ls Rs
Частота : 48,0 КГц
Частота кадров : 31,250 кадров/сек (1536 SPF)
Метод сжатия : С потерями
Задержка видео : -83 мс.
Размер потока : 208 Мбайт (6%)
Заголовок : MVO LostFilm @DD5.1 AC3, 640 Kbps, 48.0 KHz, 6 ch
Язык : Russian
ServiceKind/String : Complete Main
Default : Да
Forced : Нет

Аудио #2
Идентификатор : 7
Формат : AC-3
Формат/Информация : Audio Coding 3
Коммерческое название : Dolby Digital
Идентификатор кодека : A_AC3
Продолжительность : 45 м. 34 с.
Вид битрейта : Постоянный
Битрейт : 384 Кбит/сек
Каналы : 6 каналов
ChannelLayout : L R C LFE Ls Rs
Частота : 48,0 КГц
Частота кадров : 31,250 кадров/сек (1536 SPF)
Метод сжатия : С потерями
Размер потока : 125 Мбайт (4%)
Заголовок : MVO TVShows @DD5.1 AC3, 384 Kbps, 48.0 KHz, 6 ch
Язык : Russian
ServiceKind/String : Complete Main
Default : Нет
Forced : Нет

Аудио #3
Идентификатор : 8
Формат : AC-3
Формат/Информация : Audio Coding 3
Коммерческое название : Dolby Digital
Идентификатор кодека : A_AC3
Продолжительность : 45 м. 34 с.
Вид битрейта : Постоянный
Битрейт : 384 Кбит/сек
Каналы : 6 каналов
ChannelLayout : L R C LFE Ls Rs
Частота : 48,0 КГц
Частота кадров : 31,250 кадров/сек (1536 SPF)
Метод сжатия : С потерями
Задержка видео : -83 мс.
Размер потока : 125 Мбайт (4%)
Заголовок : MVO NewStudio @DD5.1 AC3, 384 Kbps, 48.0 KHz, 6 ch
Язык : Russian
ServiceKind/String : Complete Main
Default : Нет
Forced : Нет

Аудио #4
Идентификатор : 9
Формат : AC-3
Формат/Информация : Audio Coding 3
Коммерческое название : Dolby Digital
Идентификатор кодека : A_AC3
Продолжительность : 45 м. 32 с.
Вид битрейта : Постоянный
Битрейт : 384 Кбит/сек
Каналы : 6 каналов
ChannelLayout : L R C LFE Ls Rs
Частота : 48,0 КГц
Частота кадров : 31,250 кадров/сек (1536 SPF)
Метод сжатия : С потерями
Задержка видео : -83 мс.
Размер потока : 125 Мбайт (4%)
Заголовок : MVO HDRezka Studio @DD5.1 AC3, 384 Kbps, 48.0 KHz, 6 ch
Язык : Russian
ServiceKind/String : Complete Main
Default : Нет
Forced : Нет

Аудио #5
Идентификатор : 10
Формат : E-AC-3
Формат/Информация : Enhanced AC-3
Коммерческое название : Dolby Digital Plus
Идентификатор кодека : A_EAC3
Продолжительность : 45 м. 34 с.
Вид битрейта : Постоянный
Битрейт : 640 Кбит/сек
Каналы : 6 каналов
ChannelLayout : L R C LFE Ls Rs
Частота : 48,0 КГц
Частота кадров : 31,250 кадров/сек (1536 SPF)
Метод сжатия : С потерями
Размер потока : 209 Мбайт (6%)
Заголовок : Original@DD5.1 E-AC3 ,640 Kbps, 48.0 KHz, 6 ch
Язык : English
ServiceKind/String : Complete Main
Default : Нет
Forced : Нет

Текст #1
Идентификатор : 2
Формат : ASS
Идентификатор кодека : S_TEXT/ASS
Идентификатор кодека/Информация : Advanced Sub Station Alpha
Продолжительность : 19 м. 1 с.
Битрейт : 1 бит/сек
ElementCount : 3
Метод сжатия : Без потерь
Размер потока : 157 байт (0%)
Заголовок : Russian-Forced
Язык : Russian
Default : Да
Forced : Нет

Текст #2
Идентификатор : 3
Формат : UTF-8
Идентификатор кодека : S_TEXT/UTF8
Идентификатор кодека/Информация : UTF-8 Plain Text
Продолжительность : 44 м. 54 с.
Битрейт : 117 бит/сек
ElementCount : 795
Размер потока : 38,6 Кбайт (0%)
Заголовок : Russian
Язык : Russian
Default : Нет
Forced : Нет

Текст #3
Идентификатор : 4
Формат : UTF-8
Идентификатор кодека : S_TEXT/UTF8
Идентификатор кодека/Информация : UTF-8 Plain Text
Продолжительность : 44 м. 49 с.
Битрейт : 75 бит/сек
ElementCount : 867
Размер потока : 24,7 Кбайт (0%)
Заголовок : Original - SDH
Язык : English
Default : Нет
Forced : Нет

Текст #4
Идентификатор : 5
Формат : UTF-8
Идентификатор кодека : S_TEXT/UTF8
Идентификатор кодека/Информация : UTF-8 Plain Text
Продолжительность : 44 м. 55 с.
Битрейт : 68 бит/сек
ElementCount : 791
Размер потока : 22,7 Кбайт (0%)
Заголовок : Original
Язык : English
Default : Нет
Forced : Нет

Меню
00:00:00.083 : ru:Глава 01 / ru:Глава 01 / ru:Глава 01 / ru:Глава 01 / ru:Глава 01 / ru:Глава 01 / ru:Глава 01 / ru:Глава 01 / ru:Глава 01 / ru:Глава 01










Внимание! Раздача пополняется по мере выхода новых серий!


Раздача ведётся путём добавления новых серий; при каждом добавлении создётся новый торрент.
Чтобы начать докачку новой серии, пользователям необходимо сделать следующее:
1. остановить скачивание,
2. удалить старый торрент у себя из клиента (старые серии удалять не надо),
3. скачать новый торрент и запустить его у себя в клиенте вместо старого, при этом указать клиенту путь в старую папку, куда и должно происходить скачивание новых серий.

Ваш клиент при этом должен произвести хеширование (проверку) старой папки (если не производит сам - помогите ему сделать это), и будет докачивать только те серии которых у вас ещё нет. Старые серии при этом не удаляются, а продолжают раздаваться!

Eсли вы уже удалили старые серии, то предотвратить повторную закачку старых серий можно, отжав галочку в соответсвующих местах при запуске нового торрента. По возможности, желательно не удалять старые серии как можно дольше, чтобы релизёр не столько продолжал раздавать старые серии, а смог сконцентрироваться на новых.

Совет для тех, кто не хочет ждать перехеширования:
Создайте ещё одну папку рядом с папкой сериала (рядом, а не в ней!!!). Каждую новую серию после удачной загрузки копируйте в новую папку так чтобы ваша основная папка всегда была пуста. Когда ваш новый торрент предложит вам закачать все файлы, выберете только последнюю. Для сидирования же укажите адрес новой папки.

Как закачать отдельный файл из торрента или докачать ранее пропущенные файлы торрента!

1. Открыть торрент
2. Снять галки с тех файлов торрента, которые мы не хотим закачивать. Оставляем только на нужных нам файлах (файле).
3. Нажать О.К.

В клиенте utorrent

Инструкция

1) Открыть торрент


2) Снять галки с тех файлов торрента, которые мы не хотим закачивать:

* либо вручную, снимая с каждого файла галку( скрин №1)
* либо, нажав кнопку "Снять метки (Select None)", сняв сразу со всех файлов(скрин №2)
№1

№2

Оставляем только на нужных нам файлах (файле).

3)Нажать О.К







Внимание!!! 18.10. 2019. РАЗДАЧА ОБНОВЛЕНА. ДОБАВЛЕНА - 4- СЕРИЯ ОБНОВИТЕ ТОРЕНТ ФАЙЛ. ПРИЯТНОГО ПРОСМОТРА . Поблагодарить:
ЯД: 410017546713876



Релиз от: Nikolai.Baranov & PIRATIYA







Время раздачи : 24/7


 Профиль
 
Ответить с цитатой  
Понравилась тема расскажи друзьям!


  • Торрент

Блудный сын / Prodigal Son (Сезон 1 , Серия 1-4 из 10) ( Ли Толанд Кригер) [2019,Драма, криминал,WEB-DLRip 1080p] [LostFilm+TVShows+NewStudio+DRezka+ENG]+[Subs Rus , ENG].torrent 
Зарегистрирован:  06 окт 2019, 15:36  HASH|a8543bf3db0586b9b1f5e4409383692630f4da3d| (Google it!)
Статус:  R обновляемая | nikolai.baranov1955
Торрент:  Размер: 13.48 ГБ | Скачан: 0 раз | Торрент файл: 142.56 КБ  
Здоровье:   100%
Поделиться:
 
Как качать?
Как качать?
X
Скачайте торрент и откройте его в своем клиенте
uTorrent

скачать программу,
дождитесь окончания загрузки.
* Как смотреть?
Как смотреть?
X

Для работы Magic Player
Вам необходимо установить
Ace Stream P2P Multimedia Plug-in

Установить

Для работы Magic Player
Вам необходимо включить
Ace Stream P2P Multimedia Plug-in

Инструкция
Показать сообщения за:  Поле сортировки  
Начать новую тему Ответить на тему  [ 1 сообщение ] 

   Похожие торренты   Автор   Ответы   Просмотры   Последнее сообщение 
Непрочитанные сообщения Скачать торрент Магнет ссылка R обновляемая Перейти к первому непрочитанному сообщениюСверхъестественное / Supernatural (Сезон 15 , Серия 1-2 из 20) (Сгриккиа, Джеймс Л. Конуэй) [2019,Ужасы, фэнтези, триллер, драма, мистика,WEB-DLRip 1080p] [LostFilm+TVShows+NewStudio & NovaFilm+ENG]+[Subs Rus , ENG] За каждые 13.48 байт. аплоада (сидирования) этого торрента начисляется бонус: 1.000

в форуме Зарубежние сериалы, Размер: 3.75 ГБ, Здоровье: 100%

nikolai.baranov1955

0
4|0

16
0

21 окт 2019, 15:01

nikolai.baranov1955 Перейти к последнему сообщению

Непрочитанные сообщения Скачать торрент Магнет ссылка √Проверено Перейти к первому непрочитанному сообщениюКарнивал Роу / Carnival Row (Сезон 1 , Серия 1-8 из 8) (Джон Эмиел, Анна Ферстер) [2019, Фэнтези, триллер, детектив,WEB-DLRip 1080p] [LostFilm+AlexFilm +HDRezka+Кубик в Кубе+Profix Media+TVShows+ENG]+[Subs Rus , ENG] За каждые 13.48 байт. аплоада (сидирования) этого торрента начисляется бонус: 1.000

в форуме Законченные зарубежние сериалы, Размер: 27.02 ГБ, Здоровье: 100%

nikolai.baranov1955

0
3|0

15
0

Вчера, 13:47

nikolai.baranov1955 Перейти к последнему сообщению

Непрочитанные сообщения Скачать торрент Магнет ссылка √Проверено Перейти к первому непрочитанному сообщениюКарнивал Роу / Carnival Row (Сезон 1 , Серия 1-8 из 8) (Джон Эмиел, Анна Ферстер) [2019, Фэнтези, триллер, детектив,WEB-DLRip 1080p] [LostFilm+AlexFilm +HDRezka+Кубик в Кубе+Profix Media+TVShows+ENG]+[Subs Rus , ENG] За каждые 13.48 байт. аплоада (сидирования) этого торрента начисляется бонус: 1.000

в форуме Законченные зарубежние сериалы, Размер: 15.59 ГБ, Здоровье: 100%

nikolai.baranov1955

0
3|0

23
0

Вчера, 00:44

nikolai.baranov1955 Перейти к последнему сообщению

Непрочитанные сообщения Скачать торрент Магнет ссылка √Проверено Перейти к первому непрочитанному сообщениюПуть: Во все тяжкие / El Camino: A Breaking Bad Movie (Винс Гиллиган) [2019,Драма, криминал,WEB-DL,HEVC,HDR 1080р] [LostFilm+Jaskier+Kubik v Kubike+IdeaFilm+HamsterStudio+Flarrow Films+ENG]+[Subs Rus+ENG] За каждые 13.48 байт. аплоада (сидирования) этого торрента начисляется бонус: 1.000

в форуме Новинки кинематографа, Размер: 7.26 ГБ, Здоровье: 100%

nikolai.baranov1955

0
9|0

20
0

18 окт 2019, 11:28

nikolai.baranov1955 Перейти к последнему сообщению

Непрочитанные сообщения Скачать торрент Магнет ссылка √Проверено Перейти к первому непрочитанному сообщениюКанцелярская крыса. Большой передел / Сезон 2 / Серия 13 из 20 [2019, Детектив, криминал, SATRip] За каждые 13.48 байт. аплоада (сидирования) этого торрента начисляется бонус: 1.000

в форуме Русские сериалы, Размер: 713.8 МБ, Здоровье: 0%

admin

0
0|0

11
0

Вчера, 18:30

admin Перейти к последнему сообщению



Кто сейчас на конференции

Сейчас этот форум просматривают: нет зарегистрированных пользователей и гости: 0


Вы не можете начинать темы
Вы не можете отвечать на сообщения
Вы не можете редактировать свои сообщения
Вы не можете удалять свои сообщения
Вы не можете добавлять вложения

Найти:
Перейти:  
cron