Сообщения без ответов | Активные темы Непрочитанные сообщения




Начать новую тему Ответить на тему  [ 1 сообщение ] 
Статистика раздачи
Размер|   31.74 ГБ    |   34 075 946 403 байт   
Раздают|   20   Качают|   37      
Последний личер: | 21 час 51 минуту 24 секунды назад  | (Google it!)
Автор Сообщение
Непрочитанное сообщениеДобавлено: 08 окт 2019, 23:31 
Не в сети
Администратор
Администратор
Аватара пользователя
Раздал: 4.27 ГБ
Скачал: 6.28 ГБ
Ратио: 0.680


Зарегистрирован: 01 июл 2016, 17:16
Сообщения: 1419
Баллы репутации: 110
За участие в улучшении сайтаЗа участие в улучшении сайта
Медали: 6
за участие (1) Создание сайта (1) За 100 релизов (1) за 200 релизов (1) За 500 релизов (1)
За 1000 релизов (1)
Информация о фильме
Название: Канцелярская крыса
Год выпуска: 2018
Страна: Россия
Жанр: детектив, драма
[hr][/hr]Перевод: Не требуется [Русский]
Продолжительность: 10 х ~ 00:50:10
Режиссер: Иван Глубоков
В ролях: Константин Стрельников (Андрей Вершинин), Алексей Кравченко (Авдеев), Ингрид Олеринская (Анна Логинова, тележурналистка), Елена Полякова, Алексей Нилов, Вадим Сквирский, Сергей Кошонин, Валерий Гришко, Роман Жилкин, Андрей Павловец, Юрий Жаравин (Болесав), Александр Какуев (сотрудник РУВД)

Описание:
Сотрудника полицейского архива - майора Андрея Вершинина - внезапно повышают и переводят в приграничный город Портовый. Вершинину предстоит занять должность руководителя УВД вместо недавно погибшего полковника Авдеева. Нового начальника встречают настороженно: подчинённые почти открыто с ним конфликтуют, а пресса и общественность, взволнованные недавней серией ограблений, просто возмущены этим назначением. Теперь герою предстоит доказать свою компетентность в реальном раскрытии преступлений и не отступиться от дела даже в атмосфере всеобщего недоверия.
Рейтинг:

Качество: HDTV 1080p Запись с
Формат: MKV
Видео: AVC, 1920x1080 (16:9), 7050 kbps, 25 fps, 0,136 bpp
Аудио: AC3 / 2.0 / 48 kHz / 192 kbps /


General
Unique ID : 242488345995292199686966365340262342664 (0xB66D8E8209CC51288E43970865EE2008)
Complete name : E:Запись с твKancelyarskaya krysa 2018.HDTV 1080p.R.G.GeneralfilmKancelyarskaya krysa.s01.e01.2018.HDTV 1080p.by.White Smoke.R.G.Generalfilm.mkv
Format : Matroska
Format version : Version 4 / Version 2
File size : 2.51 GiB
Duration : 50 min
Overall bit rate mode : Constant
Overall bit rate : 7 174 kb/s
Movie name : Kancelyarskaya krysa.s01.e01.2018.HDTV 1080p.by.White Smoke.R.G.Generalfilm.mkv
Encoded date : UTC 2018-09-25 07:57:36
Writing application : mkvmerge v6.8.0 ('Theme for Great Cities') 64bit built on Mar 2 2014 21:34:26
Writing library : libebml v1.3.0 + libmatroska v1.4.1
Cover : Yes
Attachments : cover.jpg

Video
ID : 1
Format : AVC
Format/Info : Advanced Video Codec
Format profile : High@L4.1
Format settings, CABAC : Yes
Format settings, ReFrames : 3 frames
Format settings, GOP : M=3, N=33
Codec ID : V_MPEG4/ISO/AVC
Duration : 50 min
Bit rate mode : Constant
Bit rate : 7 051 kb/s
Width : 1 920 pixels
Height : 1 080 pixels
Display aspect ratio : 16:9
Frame rate mode : Constant
Frame rate : 25.000 FPS
Standard : PAL
Color space : YUV
Chroma subsampling : 4:2:0
Bit depth : 8 bits
Scan type : Progressive
Bits/(Pixel*Frame) : 0.136
Stream size : 2.40 GiB (95%)
Default : Yes
Forced : No
Color range : Limited
Color primaries : BT.709
Transfer characteristics : BT.709
Matrix coefficients : BT.709

Audio
ID : 2
Format : AC-3
Format/Info : Audio Coding 3
Mode extension : CM (complete main)
Format settings, Endianness : Big
Codec ID : A_AC3
Duration : 50 min
Bit rate mode : Constant
Bit rate : 192 kb/s
Channel(s) : 2 channels
Channel positions : Front: L R
Sampling rate : 48.0 kHz
Frame rate : 31.250 FPS (1536 spf)
Compression mode : Lossy
Stream size : 68.9 MiB (3%)
Default : Yes
Forced : No

[center]


[/center]

_________________
На вопрсы когда, а можно и т.д. не отвечаю!



 Профиль
 
Ответить с цитатой  
Понравилась тема расскажи друзьям!


  • Торрент

Канцелярская крыса [01-16 из 16] (2018) HDTV 1080p.torrent 
Зарегистрирован:  08 окт 2019, 23:31  HASH|437acd9c036de7ab81afcb12ac0edf617104fff5| (Google it!)
Статус:  √Проверено | admin
Торрент:  Размер: 31.74 ГБ | Скачан: 444 раз | Торрент файл: 82.07 КБ  
Здоровье:   54%
Поделиться:
 
Как качать?
Как качать?
X
Скачайте торрент и откройте его в своем клиенте
uTorrent

скачать программу,
дождитесь окончания загрузки.
* Как смотреть?
Как смотреть?
X

Для работы Magic Player
Вам необходимо установить
Ace Stream P2P Multimedia Plug-in

Установить

Для работы Magic Player
Вам необходимо включить
Ace Stream P2P Multimedia Plug-in

Инструкция
Показать сообщения за:  Поле сортировки  
Начать новую тему Ответить на тему  [ 1 сообщение ] 

   Похожие торренты   Автор   Ответы   Просмотры   Последнее сообщение 
Непрочитанные сообщения Скачать торрент Магнет ссылка R обновляемая Перейти к первому непрочитанному сообщениюКанцелярская крыса [02x01-14 из 20] (2019) SATRip За каждые 31.74 байт. аплоада (сидирования) этого торрента начисляется бонус: 1.000

в форуме Русские сериалы, Размер: 8.2 ГБ, Здоровье: 34%

admin

0
211|610

10
823

Вчера, 20:48

admin Перейти к последнему сообщению

Непрочитанные сообщения Скачать торрент Магнет ссылка R обновляемая Перейти к первому непрочитанному сообщениюКанцелярская крыса [02х01-10 из 20] (2019) SATRip-AVC За каждые 31.74 байт. аплоада (сидирования) этого торрента начисляется бонус: 1.000

в форуме Русские сериалы, Размер: 6.97 ГБ, Здоровье: 53%

admin

0
106|200

23
1378

18 окт 2019, 20:25

admin Перейти к последнему сообщению

Непрочитанные сообщения Скачать торрент Магнет ссылка √Проверено Перейти к первому непрочитанному сообщениюКанцелярская крыса. Большой передел / Сезон 2 / Серия 15 из 20 [2019, Детектив, криминал, SATRip]

в форуме Русские сериалы, Размер: 686.46 МБ, Здоровье: ???%

admin

0
0|1

1
0

4 минуты назад

admin Перейти к последнему сообщению

Непрочитанные сообщения Скачать торрент Магнет ссылка √Проверено Перейти к первому непрочитанному сообщениюКанцелярская крыса. Большой передел / Сезон 2 / Серия 9 из 20 [2019, Детектив, криминал, SATRip] За каждые 31.74 байт. аплоада (сидирования) этого торрента начисляется бонус: 1.000

в форуме Русские сериалы, Размер: 709.04 МБ, Здоровье: 100%

admin

0
4|0

22
0

18 окт 2019, 19:04

admin Перейти к последнему сообщению

Непрочитанные сообщения Скачать торрент Магнет ссылка √Проверено Перейти к первому непрочитанному сообщениюКанцелярская крыса. Большой передел / Сезон 2 / Серия 10 из 20 [2019, Детектив, криминал, SATRip]

в форуме Русские сериалы, Размер: 658.18 МБ, Здоровье: 0%

admin

0
0|0

22
0

18 окт 2019, 20:19

admin Перейти к последнему сообщению



Кто сейчас на конференции

Сейчас этот форум просматривают: нет зарегистрированных пользователей и гости: 0


Вы не можете начинать темы
Вы не можете отвечать на сообщения
Вы не можете редактировать свои сообщения
Вы не можете удалять свои сообщения
Вы не можете добавлять вложения

Найти:
Перейти: