Ужастики / Goosebumps (2015) CAMRip | L1

DL-List and Torrent activity [Update ]
Size:  745 MB   |    Registered:  5 years 8 months   |    Completed:  15 times
Seeders:  215  [  0 KB/s  ]   Leechers:  126  [  0 KB/s  ]  
   
 
Author Message

Иваныч ®

Gender: Male

Longevity: 5 years 8 months

Posts: 8217

Наличие запрета:


Карма  175 

Location: Россия,Курган



: 19 ()

Помощь (1) Дизайн (1) Активный релизер  (100 релизов) (1) Активный релизер  (200 релизов) (1)
Техпддержка (1) Активный релизер  (50 релизов) (1) За внесенный вклад в развитие сайта (1) От администрации (1)
Активный релизер  (1000 релизов) (1) Активному релизеру (5000 раздач) (1) Активный релизер  (150 релизов) (1) Реализация решений (1)

Post 25-Nov-2015 19:21

[Quote]

Информация о фильме
Название: Ужастики
Оригинальное название: Goosebumps
Год выхода: 2015
Жанр: фэнтези, комедия, приключения
Режиссер: Роб Леттерман
В ролях: Дилан Миннетт, Одейя Раш, Эми Райан, Райан Ли, Джиллиан Белл, Джек Блэк, Кен Марино, Холстон Сейдж, Стивен Крюгер, Кит А. Болден
О фильме: Зак переезжает с родителями в провинциальный городок, где знакомится с очаровательной соседкой Ханной. Он узнает, что ее отец — Роберт Стайн, знаменитый писатель, автор популярной серии триллеров для подростков «Ужастики», у которого есть мрачная тайна. Стайн — пленник собственных историй: монстры из его произведений вполне реальны, и он пишет свои книги для того, чтобы запереть чудовищ на их страницах, защищая своих читателей. По случайному стечению обстоятельств Зак выпускает монстров на волю…


Выпущено: США, Австралия / Columbia Pictures, LStar Capital, Original Film, Scholastic Entertainment, Sony Pictures Animation, Sony Pictures Entertainment (SPE), Village Roadshow Pictures
Продолжительность: 01:34:08
Озвучивание: Любительское (одноголосое) [VANO]
Файл
Формат: AVI (XviD)
Качество: CAMRip
Видео: MPEG4, XviD, 720x288 (2.500), 29.970 fps, 926 Kbps (0.149 bit/pixel)
Аудио: AC-3, 48.0 KHz, 2 ch, 128 Kbps, CBR
Размер: 745 MB
Скачать: Сэмпл-

mi

General
Complete name : G0oSebUm5s.2015.L1.CAMRip.745MB.avi
Format : AVI
Format/Info : Audio Video Interleave
File size : 745 MiB
Duration : 1h 34mn
Overall bit rate : 1 106 Kbps
Movie name : G0oSebUm5s.2015.L1.CAMRip.745MB
Writing application : VirtualDubMod 1.5.10.3 | www.virtualdub-fr.org || (build 2550/release)
Copyright : UNIONGANG&RUSTORRENTS
Video
ID : 0
Format : MPEG-4 Visual
Format profile : Advanced Simple@L5
Format settings, BVOP : 2
Format settings, QPel : No
Format settings, GMC : No warppoints
Format settings, Matrix : Default (MPEG)
Codec ID : XVID
Codec ID/Hint : XviD
Duration : 1h 34mn
Bit rate : 926 Kbps
Width : 720 pixels
Height : 288 pixels
Display aspect ratio : 2.500
Frame rate : 29.970 fps
Color space : YUV
Chroma subsampling : 4:2:0
Bit depth : 8 bits
Scan type : Progressive
Compression mode : Lossy
Bits/(Pixel*Frame) : 0.149
Stream size : 623 MiB (84%)
Writing library : XviD 1.2.1 (UTC 2008-12-04)
Audio
ID : 1
Format : AC-3
Format/Info : Audio Coding 3
Mode extension : CM (complete main)
Format settings, Endianness : Big
Codec ID : 2000
Duration : 1h 34mn
Bit rate mode : Constant
Bit rate : 128 Kbps
Channel(s) : 2 channels
Channel positions : Front: L R
Sampling rate : 48.0 KHz
Bit depth : 16 bits
Compression mode : Lossy
Stream size : 86.2 MiB (12%)
Alignment : Split accross interleaves

Скриншоты | повтор:

- -
Сейчас вы смотрите Ужастики / Goosebumps (2015) CAMRip | L1,не забываем оставлять комментарии!
Ужастики / Goosebumps (2015) CAMRip | L1 [mytorrnado.ru].t1445.torrent 
Torrent: Registered [ 2015-11-25 19:21 ] · 52D13DB2358DECAE3B0F0B879040369F28516E5F Google it!

Download .torrent

15 KB

Status: checked
Completed: 15 times
Тип торрента: Публичный  - Seed: 215;  Leeh: 126    
Size: 745 MB
Поделиться:
FAQ:
 
Как качать?
Как качать?
X
Скачайте торрент и откройте его в своем клиенте
uTorrent

скачать программу,
дождитесь окончания загрузки.
Если торрент закрыт? Инстркуция.
* Как смотреть?
Как смотреть?
X

Для работы Magic Player
Вам необходимо установить
Ace Stream P2P Multimedia Plug-in

Установить

Для работы Magic Player Вам необходимо включить
Ace Stream P2P Multimedia Plug-in

Инструкция
terms.php
Похожие темы




Запрещено категорически:
» Развязывать разборки (для этого есть ЛС)
» Оставлять комментарии, не относящиеся к содержанию материала.
» Добавлять спам, рекламу флуд..
К спаму относится:
1. Реклама любого направления.
2. Ссылки на сторонние ресурсы рекламного характера.
3. Ссылки на ресурсы порнографического направления.
4. Сылки на блоги и им подбным контeнтам.
» Запрещено оскорбление администрации, модераторов и пользователей.
» Часто писать с вкл. Caps Lock
»За нарушение правил бан или отключение без объяснений.
Уважайте чужой труд!

Правила могут дополняться и изменяться. С уважением Администрация.
[Profile] [PM]
Display posts    
Reply to topic

Current time is: 29-Jul 17:58

All times are UTC + 5



You cannot post new topics in this forum
You cannot reply to topics in this forum
You cannot edit your posts in this forum
You cannot delete your posts in this forum
You cannot vote in polls in this forum
You cannot attach files in this forum
You can download files in this forum










!ATTENTION!
The site does not give electronic versions of products, and is engaged only in a collecting and cataloguing of the references sent and published at a forum by our readers. If you are the legal owner of any submitted material and do not wish that the reference to it was in our catalogue, contact us and we shall immediately remove her. Files for an exchange on tracker are given by users of a site, and the administration does not bear the responsibility for their maintenance. The request to not fill in the files protected by copyrights, and also files of the illegal maintenance!