Охотник на акул / Shark Killer (2015) DVDRip-AVC от ExKinoRay | L1

DL-List and Torrent activity [Update ]
Size:  1.38 GB   |    Registered:  5 years 8 months   |    Completed:  50 times
Seeders:  100  [  0 KB/s  ]   Leechers:  5  [  0 KB/s  ]  
   
 
Author Message

***DrJoker*** ®

Gender: Male

Longevity: 5 years 8 months

Posts: 1378

Наличие запрета:


Карма  140 

Location: Россия



: 13 ()

Помощь (1) За внесенный вклад в развитие сайта (1) Активный релизер  (1000 релизов) (1) Активный релизер (500 релизов) (1)
Активный релизер  (150 релизов) (1) Самый скачиваемый релиз (1) Активный релизер  (100 релизов) (1) Активный релизер  (50 релизов) (1)
Активный релизер  (200 релизов) (1) Активисту (1) Активный релизер  (250 и более релизов) (1) Реализация решений (1)

Post 25-Nov-2015 20:39

[Quote]

Информация о фильме
Название: Охотник на акул
Оригинальное название: Shark Killer
Год выпуска: 2015
Жанр: Боевик, триллер
Режиссер: Шелдон Уилсон
В ролях: Дерек Телер, Эрика Серра, Пол дю Ту, Арнольд Вослу, Нильс Ван Ярсвельд, Уэйн Харрисон, Эшли ван дер Ховен, Хени Босман, Нэйтан Уитли, Джозеф Митчелл
О фильме: Глава криминального синдиката нанимает охотника на акул, чтоб тот убил акулу с черными плавниками, проглотившую ценный алмаз.

Выпущено: Канада, ЮАР, Blue Ice Pictures
Продолжительность: 01:24:37
Озвучка: Любительская одноголосая (Хихикающий доктор) по субтитрам dlz099
Файл
Качество: DVDRip (AVC)
Видео: MPEG-4 AVC, 1688 Кбит/с, 720x576@1024x576
Аудио: Русский (АС3, 2 ch, 192 Кбит/с), английский (АС3, 6 ch, 448 Кбит/с)

MI

General
Unique ID : 225301012340307494011673030018338794280 (0xA97F6588ABF8CCD7A56053715B4E2B28)
Complete name : C:SHARK_KILLER.2015.xixidok.DVDRip.AVC.ExKinoRay.mkv
Format : Matroska
Format version : Version 4 / Version 2
File size : 1.38 GiB
Duration : 1h 24mn
Overall bit rate : 2 329 Kbps
Movie name : SHARK KILLER 2015 from ExKinoRay
Encoded date : UTC 2015-11-12 02:24:23
Writing application : mkvmerge v6.6.0 ('The Edge Of The In Between') built on Dec 1 2013 17:55:00
Writing library : libebml v1.3.0 + libmatroska v1.4.1
Video
ID : 1
Format : AVC
Format/Info : Advanced Video Codec
Format profile : High@L4.1
Format settings, CABAC : Yes
Format settings, ReFrames : 12 frames
Codec ID : V_MPEG4/ISO/AVC
Duration : 1h 24mn
Bit rate : 1 688 Kbps
Width : 720 pixels
Height : 576 pixels
Display aspect ratio : 16:9
Frame rate mode : Constant
Frame rate : 25.000 fps
Standard : PAL
Color space : YUV
Chroma subsampling : 4:2:0
Bit depth : 8 bits
Scan type : Progressive
Bits/(Pixel*Frame) : 0.163
Stream size : 994 MiB (71%)
Title : Enigma
Writing library : x264 core 133 r2334 a3ac64b
Encoding settings : cabac=1 / ref=12 / deblock=1:-2:-2 / analyse=0x3:0x113 / me=umh / subme=10 / psy=1 / psy_rd=1.05:0.15 / mixed_ref=1 / me_range=32 / chroma_me=1 / trellis=2 / 8x8dct=1 / cqm=0 / deadzone=21,11 / fast_pskip=0 / chroma_qp_offset=-3 / threads=12 / lookahead_threads=2 / sliced_threads=0 / nr=0 / decimate=0 / interlaced=0 / bluray_compat=0 / constrained_intra=0 / bframes=8 / b_pyramid=2 / b_adapt=2 / b_bias=0 / direct=3 / weightb=1 / open_gop=0 / weightp=2 / keyint=250 / keyint_min=25 / scenecut=40 / intra_refresh=0 / rc_lookahead=40 / rc=2pass / mbtree=0 / bitrate=1688 / ratetol=1.0 / qcomp=0.60 / qpmin=0 / qpmax=51 / qpstep=4 / cplxblur=20.0 / qblur=0.5 / vbv_maxrate=50000 / vbv_bufsize=62500 / nal_hrd=none / ip_ratio=1.40 / pb_ratio=1.30 / aq=1:1.00
Default : Yes
Forced : No
Color primaries : BT.601 PAL
Transfer characteristics : BT.470 System B, BT.470 System G
Matrix coefficients : BT.601
Audio #1
ID : 2
Format : AC-3
Format/Info : Audio Coding 3
Mode extension : CM (complete main)
Format settings, Endianness : Big
Codec ID : A_AC3
Duration : 1h 24mn
Bit rate mode : Constant
Bit rate : 192 Kbps
Channel(s) : 2 channels
Channel positions : Front: L R
Sampling rate : 48.0 KHz
Bit depth : 16 bits
Compression mode : Lossy
Stream size : 116 MiB (8%)
Title : xixidok
Language : Russian
Default : No
Forced : No
Audio #2
ID : 3
Format : AC-3
Format/Info : Audio Coding 3
Mode extension : CM (complete main)
Format settings, Endianness : Big
Codec ID : A_AC3
Duration : 1h 24mn
Bit rate mode : Constant
Bit rate : 448 Kbps
Channel(s) : 6 channels
Channel positions : Front: L C R, Side: L R, LFE
Sampling rate : 48.0 KHz
Bit depth : 16 bits
Compression mode : Lossy
Stream size : 271 MiB (19%)
Language : English
Default : No
Forced : No

Релиз от:
Автор релиза:
Сейчас вы смотрите Охотник на акул / Shark Killer (2015) DVDRip-AVC от ExKinoRay | L1,не забываем оставлять комментарии!
Охотник на акул / Shark Killer (2015) DVDRip-AVC от ExKinoRay | L1 [mytorrnado.ru].t1453.torrent 
Torrent: Registered [ 2015-11-25 20:39 ] · 25471A8FD1F5E8FCA9915DEBFF4F2D1A254C9B8F Google it!

Download .torrent

14 KB

Status: T temporary
Completed: 50 times
Тип торрента: Публичный  - Seed: 100;  Leeh: 5    
Size: 1.38 GB
Поделиться:
FAQ:
 
Как качать?
Как качать?
X
Скачайте торрент и откройте его в своем клиенте
uTorrent

скачать программу,
дождитесь окончания загрузки.
Если торрент закрыт? Инстркуция.
* Как смотреть?
Как смотреть?
X

Для работы Magic Player
Вам необходимо установить
Ace Stream P2P Multimedia Plug-in

Установить

Для работы Magic Player Вам необходимо включить
Ace Stream P2P Multimedia Plug-in

Инструкция
terms.php
Похожие темы




Запрещено категорически:
» Развязывать разборки (для этого есть ЛС)
» Оставлять комментарии, не относящиеся к содержанию материала.
» Добавлять спам, рекламу флуд..
К спаму относится:
1. Реклама любого направления.
2. Ссылки на сторонние ресурсы рекламного характера.
3. Ссылки на ресурсы порнографического направления.
4. Сылки на блоги и им подбным контeнтам.
» Запрещено оскорбление администрации, модераторов и пользователей.
» Часто писать с вкл. Caps Lock
»За нарушение правил бан или отключение без объяснений.
Уважайте чужой труд!

Правила могут дополняться и изменяться. С уважением Администрация.
[Profile] [PM]
Display posts    
Reply to topic

Current time is: 29-Jul 18:25

All times are UTC + 5



You cannot post new topics in this forum
You cannot reply to topics in this forum
You cannot edit your posts in this forum
You cannot delete your posts in this forum
You cannot vote in polls in this forum
You cannot attach files in this forum
You can download files in this forum










!ATTENTION!
The site does not give electronic versions of products, and is engaged only in a collecting and cataloguing of the references sent and published at a forum by our readers. If you are the legal owner of any submitted material and do not wish that the reference to it was in our catalogue, contact us and we shall immediately remove her. Files for an exchange on tracker are given by users of a site, and the administration does not bear the responsibility for their maintenance. The request to not fill in the files protected by copyrights, and also files of the illegal maintenance!