Лига справедливости Зака Снайдера / Zack Snyder's Justice League (2021) WEB-DLRip-AVC | D

DL-List and Torrent activity [Update ]
Size:  1.45 GB   |    Registered:  4 months 5 days   |    Completed:  32 times
Seeders:  103  [  0 KB/s  ]   Leechers:  126  [  0 KB/s  ]  
 
     
 
 
Author Message

K15 ®

Gender: Male

Longevity: 5 months 23 days

Posts: 526

Наличие запрета:


Карма  10 


: 5 ()

Кандидат (1) Активный релизер  (200 релизов) (1) Активный релизер  (150 релизов) (1) Активный релизер  (50 релизов) (1)
Активный релизер  (250 и более релизов) (1)

Post 20-Mar-2021 20:36

[Quote]

Информация о фильме
Название: Лига справедливости Зака Снайдера
Оригинальное название: Zack Snyder's Justice League
Год выхода: 2021
Жанр: Фантастика, фэнтези, боевик, приключения
Режиссер: Зак Снайдер
В ролях: Бен Аффлек, Галь Гадот, Генри Кавилл, Дайан Лэйн, Джаред Лето, Эзра Миллер, Джейсон Момоа, Конни Нильсен, Дж.К. Симмонс, Робин Райт и др.
О фильме: Вдохновившись самопожертвованием Супермена, Брюс Уэйн вновь обретает веру в человечество. Он заручается поддержкой новой союзницы Дианы Принс, чтобы сразиться с ещё более могущественным противником. Бэтмен и Чудо-женщина набирают команду сверхлюдей для борьбы с пробудившейся угрозой.

Страна: США
Перевод: Дублированный | Кинопоиск HD
Продолжительность: 04:02:03
Субтитры: Русские (форс., полные)
Файл
Формат: Matroska
Качество: WEB-DLRip-AVC [ZackSnydersJusticeLeagueWEBDL1080p]
Видео: 640x480 at 23.976 fps, x264@L4.1, ~778 kbps
Аудио: AAC, 2 ch, ~78 kbps - | Русский | -
Формат субтитров: softsub (SRT)
***Релиз от: -=DoMiNo=-

M/I

General
Format : Matroska
Format version : Version 4
File size : 1.45 GiB
Duration : 4 h 2 min
Overall bit rate : 858 kb/s
Movie name : Лига справедливости Зака Снайдера.(2021).WEB-DLRip-AVC.[-=DoMiNo=-]
Encoded date : UTC 2021-03-20 14:00:11
Writing application : mkvmerge v44.0.0 ('Domino') 64-bit
Writing library : libebml v1.3.10 + libmatroska v1.5.2
Cover : Yes
Attachments : Cover.jpg / Cover 2.jpg
Video
ID : 1
Format : AVC
Format/Info : Advanced Video Codec
Format profile : High@L4.1
Format settings : CABAC / 14 Ref Frames
Format settings, CABAC : Yes
Format settings, Reference : 14 frames
Codec ID : V_MPEG4/ISO/AVC
Duration : 4 h 2 min
Bit rate : 778 kb/s
Width : 640 pixels
Height : 480 pixels
Display aspect ratio : 4:3
Frame rate mode : Constant
Frame rate : 23.976 (24000/1001) FPS
Color space : YUV
Chroma subsampling : 4:2:0
Bit depth : 8 bits
Scan type : Progressive
Bits/(Pixel*Frame) : 0.106
Stream size : 1.31 GiB (91%)
Title : -=DoMiNo=-
Writing library : x264 core 161 r3048 b86ae3c
Encoding settings : cabac=1 / ref=14 / deblock=1:0:0 / analyse=0x3:0x133 / me=umh / subme=10 / psy=1 / psy_rd=0.95:0.00 / mixed_ref=1 / me_range=32 / chroma_me=1 / trellis=2 / 8x8dct=1 / cqm=0 / deadzone=21,11 / fast_pskip=0 / chroma_qp_offset=-2 / threads=6 / lookahead_threads=1 / sliced_threads=0 / nr=0 / decimate=0 / interlaced=0 / bluray_compat=0 / constrained_intra=0 / bframes=8 / b_pyramid=2 / b_adapt=2 / b_bias=0 / direct=3 / weightb=1 / open_gop=0 / weightp=2 / keyint=250 / keyint_min=23 / scenecut=40 / intra_refresh=0 / rc_lookahead=100 / rc=2pass / mbtree=1 / bitrate=778 / ratetol=1.0 / qcomp=0.70 / qpmin=0 / qpmax=69 / qpstep=4 / cplxblur=20.0 / qblur=0.5 / vbv_maxrate=50000 / vbv_bufsize=62500 / nal_hrd=none / filler=0 / ip_ratio=1.40 / aq=1:1.00
Language : English
Default : Yes
Forced : No
Color range : Limited
Color primaries : BT.709
Transfer characteristics : BT.709
Matrix coefficients : BT.709
Audio
ID : 2
Format : AAC LC SBR
Format/Info : Advanced Audio Codec Low Complexity with Spectral Band Replication
Commercial name : HE-AAC
Format settings : Explicit
Codec ID : A_AAC-2
Duration : 4 h 2 min
Bit rate : 78.7 kb/s
Channel(s) : 2 channels
Channel layout : L R
Sampling rate : 48.0 kHz
Frame rate : 23.438 FPS (2048 SPF)
Compression mode : Lossy
Stream size : 136 MiB (9%)
Title : DUB
Language : Russian
Default : Yes
Forced : Yes
Text #1
ID : 3
Format : UTF-8
Codec ID : S_TEXT/UTF8
Codec ID/Info : UTF-8 Plain Text
Duration : 3 h 25 min
Bit rate : 0 b/s
Count of elements : 19
Stream size : 528 Bytes (0%)
Title : Forced
Language : Russian
Default : Yes
Forced : No
Text #2
ID : 4
Format : UTF-8
Codec ID : S_TEXT/UTF8
Codec ID/Info : UTF-8 Plain Text
Duration : 3 h 50 min
Bit rate : 55 b/s
Count of elements : 1767
Stream size : 93.6 KiB (0%)
Title : Full
Language : Russian
Default : No
Forced : No
Menu
00:00:00.000 : :Глава 01
00:15:00.000 : :Глава 02
00:30:00.000 : :Глава 03
00:45:00.000 : :Глава 04
01:00:00.000 : :Глава 05
01:15:00.000 : :Глава 06
01:30:00.000 : :Глава 07
01:45:00.000 : :Глава 08
02:00:00.000 : :Глава 09
02:15:00.000 : :Глава 10
02:30:00.000 : :Глава 11
02:45:00.000 : :Глава 12
03:00:00.000 : :Глава 13
03:15:00.000 : :Глава 14
03:30:00.000 : :Глава 15
03:45:00.000 : :Глава 16
04:00:00.000 : :Глава 17
Сейчас вы смотрите Лига справедливости Зака Снайдера / Zack Snyder's Justice League (2021) WEB-DLRip-AVC | D,не забываем оставлять комментарии!
Лига справедливости Зака Снайдера / Zack Snyder's Justice League (2021) WEB-DLRip-AVC | D [mytorrnado.ru].t14702.torrent 
Torrent: Registered [ 2021-03-20 20:36 ] · 104ADEC1E62A589D364DDEE8A5175C9747C020CF Google it!

Download .torrent

59 KB

Status: checked
Completed: 32 times
Тип торрента: Публичный  - Seed: 103;  Leeh: 126    
Size: 1.45 GB
Поделиться:
FAQ:
 
Как качать?
Как качать?
X
Скачайте торрент и откройте его в своем клиенте
uTorrent

скачать программу,
дождитесь окончания загрузки.
Если торрент закрыт? Инстркуция.
* Как смотреть?
Как смотреть?
X

Для работы Magic Player
Вам необходимо установить
Ace Stream P2P Multimedia Plug-in

Установить

Для работы Magic Player Вам необходимо включить
Ace Stream P2P Multimedia Plug-in

Инструкция
terms.php
Похожие темы




Запрещено категорически:
» Развязывать разборки (для этого есть ЛС)
» Оставлять комментарии, не относящиеся к содержанию материала.
» Добавлять спам, рекламу флуд..
К спаму относится:
1. Реклама любого направления.
2. Ссылки на сторонние ресурсы рекламного характера.
3. Ссылки на ресурсы порнографического направления.
4. Сылки на блоги и им подбным контeнтам.
» Запрещено оскорбление администрации, модераторов и пользователей.
» Часто писать с вкл. Caps Lock
»За нарушение правил бан или отключение без объяснений.
Уважайте чужой труд!

Правила могут дополняться и изменяться. С уважением Администрация.
[Profile] [PM]
Display posts    
Reply to topic

Current time is: 25-Jul 23:35

All times are UTC + 5



You cannot post new topics in this forum
You cannot reply to topics in this forum
You cannot edit your posts in this forum
You cannot delete your posts in this forum
You cannot vote in polls in this forum
You cannot attach files in this forum
You can download files in this forum










!ATTENTION!
The site does not give electronic versions of products, and is engaged only in a collecting and cataloguing of the references sent and published at a forum by our readers. If you are the legal owner of any submitted material and do not wish that the reference to it was in our catalogue, contact us and we shall immediately remove her. Files for an exchange on tracker are given by users of a site, and the administration does not bear the responsibility for their maintenance. The request to not fill in the files protected by copyrights, and also files of the illegal maintenance!