Перевозчик: Наследие / The Transporter Refueled (2015) BDRip-AVC | Чистый звук

DL-List and Torrent activity [Update ]
Size:  1.89 GB   |    Registered:  5 years 8 months   |    Completed:  21 times
Seeders:  9  [  0 KB/s  ]   Leechers:  98  [  0 KB/s  ]  
   
 
Author Message

Иваныч ®

Gender: Male

Longevity: 5 years 8 months

Posts: 8217

Наличие запрета:


Карма  175 

Location: Россия,Курган



: 19 ()

Активный релизер  (250 и более релизов) (1) Активный релизер  (200 релизов) (1) Активный релизер  (3000 релизов) (1) Активный релизер  (50 релизов) (1)
Активный релизер  (100 релизов) (1) Активный релизер  (2000 релизов) (1) Активисту (1) За внесенный вклад в развитие сайта (1)
Активному релизеру (5000 раздач) (1) Помощь (1) Техпддержка (1) От администрации (1)

Post 26-Nov-2015 03:14

[Quote]

Информация о фильме
Название: Перевозчик: Наследие
Оригинальное название: The Transporter Refueled
Год выпуска: 2015
Страна: Франция, Китай, Бельгия
Жанр: боевик, триллер, криминал-Перевод: Дубляж - [Чистый звук]
Примечание: Релиз без рекламы
Продолжительность: 01:35:54-Режиссер: Камиль Деламарр
В ролях: Эд Скрейн (Frank Martin), Рэй Стивенсон (Frank Senior), Лоан Шабаноль (Anna), Габриэлла Райт (Gina), Татьяна Пайкович (Maria), Венься Ю (Qiao), Радивойе Буквич (Arkady Karasov), Ноэми Ленуар (Maïssa), Юрий Колокольников (Yuri), Ленн Кудрявицки (Leo Imasova), Самир Гесми (Inspector Bectaoui), Анатоль Таубман (Stanislas Turgin)-Описание:
Фрэнк Мартин - самый высококвалифицированный перевозчик, которого только можно нанять за деньги. Ставки выше, технологии поднялись на более высокий уровень, но правила те же: никогда не изменять условия сделки, никаких имен и никогда не открывать груз.
Когда Фрэнка нанимает хитроумная красотка Анна и ее три очаровательные сообщницы, он быстро выясняет, что его водят за нос. Анна и ее команда похитили его отца, чтобы заставить Фрэнка помочь им разобраться с группой безжалостных торговцев людьми.-Рейтинг:

MPAA: PG-13 - Детям до 13 лет просмотр не желателен-Качество: BDRip-AVC
Формат: MKV
Видео: AVC, 1024x424 (2.40:1), 2185 kbps, 23,976 fps, 0,210 bpp
Аудио №1: русский / AC3 / 2.0 / 48 kHz / 192 kbps / 16 bit |Дубляж|
Аудио №2: английский / AC3 / 5.1 / 48 kHz / 448 kbps / 16 bit
Навигация по главам: есть
Семпл-Релиз от: by -Lexx- / R.G. Resident-

ОтчетМедиаИнфо

General
Unique ID : 172331606426976435416653182573160200547 (0x81A5DC30B4F1A61592E931C19B107963)
Complete name : H:T.T.R.2015.BDRip.AVC.by.R.G. Resident.mkv
Format : Matroska
Format version : Version 4 / Version 2
File size : 1.89 GiB
Duration : 1h 35mn
Overall bit rate : 2 825 Kbps
Movie name : The Transporter Refueled (2015) BDRip-AVC by R.G. Resident
Encoded date : UTC 2015-11-25 19:25:19
Writing application : mkvmerge v8.5.2 ('Crosses') 64bit
Writing library : libebml v1.3.3 + libmatroska v1.4.4
DURATION : 01:35:54.144000000
NUMBER_OF_FRAMES : 179817
NUMBER_OF_BYTES : 322232064
_STATISTICS_WRITING_APP : mkvmerge v8.5.2 ('Crosses') 64bit
_STATISTICS_WRITING_DATE_UTC : 2015-11-25 19:25:19
_STATISTICS_TAGS : BPS DURATION NUMBER_OF_FRAMES NUMBER_OF_BYTES
Video
ID : 1
Format : AVC
Format/Info : Advanced Video Codec
Format profile : High@L4.1
Format settings, CABAC : Yes
Format settings, ReFrames : 12 frames
Codec ID : V_MPEG4/ISO/AVC
Duration : 1h 35mn
Bit rate : 2 185 Kbps
Width : 1 024 pixels
Height : 424 pixels
Display aspect ratio : 2.40:1
Frame rate : 23.976 fps
Color space : YUV
Chroma subsampling : 4:2:0
Bit depth : 8 bits
Scan type : Progressive
Bits/(Pixel*Frame) : 0.210
Stream size : 1.43 GiB (75%)
Title : -Lexx-
Writing library : x264 core 146 r2538 121396c
Encoding settings : cabac=1 / ref=12 / deblock=1:-3:-3 / analyse=0x3:0x113 / me=umh / subme=11 / psy=1 / psy_rd=1.00:0.10 / mixed_ref=1 / me_range=32 / chroma_me=1 / trellis=2 / 8x8dct=1 / cqm=0 / deadzone=21,11 / fast_pskip=0 / chroma_qp_offset=-3 / threads=6 / lookahead_threads=2 / sliced_threads=0 / nr=0 / decimate=1 / interlaced=0 / bluray_compat=0 / constrained_intra=0 / bframes=8 / b_pyramid=2 / b_adapt=2 / b_bias=0 / direct=3 / weightb=1 / open_gop=0 / weightp=2 / keyint=240 / keyint_min=23 / scenecut=40 / intra_refresh=0 / rc=2pass / mbtree=0 / bitrate=2185 / ratetol=1.0 / qcomp=0.60 / qpmin=0 / qpmax=69 / qpstep=4 / cplxblur=20.0 / qblur=0.5 / ip_ratio=1.40 / pb_ratio=1.30 / aq=1:1.00
Language : English
Default : Yes
Forced : No
DURATION : 01:35:54.082000000
NUMBER_OF_FRAMES : 137960
NUMBER_OF_BYTES : 1570076860
_STATISTICS_WRITING_APP : mkvmerge v8.5.2 ('Crosses') 64bit
_STATISTICS_WRITING_DATE_UTC : 2015-11-25 19:25:19
_STATISTICS_TAGS : BPS DURATION NUMBER_OF_FRAMES NUMBER_OF_BYTES
Audio #1
ID : 2
Format : AC-3
Format/Info : Audio Coding 3
Mode extension : CM (complete main)
Codec ID : A_AC3
Duration : 1h 35mn
Bit rate mode : Constant
Bit rate : 192 Kbps
Channel(s) : 2 channels
Channel positions : Front: L R
Sampling rate : 48.0 KHz
Bit depth : 16 bits
Compression mode : Lossy
Stream size : 132 MiB (7%)
Title : Дубляж, Чистый звук
Language : Russian
Default : Yes
Forced : No
Audio #2
ID : 3
Format : AC-3
Format/Info : Audio Coding 3
Mode extension : CM (complete main)
Codec ID : A_AC3
Duration : 1h 35mn
Bit rate mode : Constant
Bit rate : 448 Kbps
Channel(s) : 6 channels
Channel positions : Front: L C R, Side: L R, LFE
Sampling rate : 48.0 KHz
Bit depth : 16 bits
Compression mode : Lossy
Stream size : 307 MiB (16%)
Title : Оригинал
Language : English
Default : No
Forced : No
Menu
00:00:00.000 : en:00:00:00.000
00:03:29.042 : en:00:03:29.042
00:06:43.278 : en:00:06:43.278
00:11:22.599 : en:00:11:22.599
00:15:01.651 : en:00:15:01.651
00:20:21.512 : en:00:20:21.512
00:24:49.905 : en:00:24:49.905
00:27:03.664 : en:00:27:03.664
00:29:29.643 : en:00:29:29.643
00:32:56.600 : en:00:32:56.600
00:35:48.605 : en:00:35:48.605
00:37:35.879 : en:00:37:35.879
00:41:53.845 : en:00:41:53.845
00:48:09.887 : en:00:48:09.887
00:52:44.536 : en:00:52:44.536
00:57:42.793 : en:00:57:42.793
01:01:01.658 : en:01:01:01.658
01:06:43.541 : en:01:06:43.541
01:10:50.204 : en:01:10:50.204
01:13:06.048 : en:01:13:06.048
01:18:27.244 : en:01:18:27.244
01:20:18.397 : en:01:20:18.397
01:21:53.408 : en:01:21:53.408
01:24:16.885 : en:01:24:16.885
01:27:00.132 : en:01:27:00.132
01:28:45.070 : en:01:28:45.070
01:30:07.110 : en:01:30:07.110

Скриншоты

Сейчас вы смотрите Перевозчик: Наследие / The Transporter Refueled (2015) BDRip-AVC | Чистый звук,не забываем оставлять комментарии!
Перевозчик: Наследие / The Transporter Refueled (2015) BDRip-AVC | Чистый звук [mytorrnado.ru].t1500.torrent 
Torrent: Registered [ 2015-11-26 03:14 ] · FEDFBB123B74D85EF1FF7D7E4481F35B7D327DD8 Google it!

Download .torrent

20 KB

Status: checked
Completed: 21 times
Тип торрента: Публичный  - Seed: 9;  Leeh: 98    
Size: 1.89 GB
Поделиться:
FAQ:
 
Как качать?
Как качать?
X
Скачайте торрент и откройте его в своем клиенте
uTorrent

скачать программу,
дождитесь окончания загрузки.
Если торрент закрыт? Инстркуция.
* Как смотреть?
Как смотреть?
X

Для работы Magic Player
Вам необходимо установить
Ace Stream P2P Multimedia Plug-in

Установить

Для работы Magic Player Вам необходимо включить
Ace Stream P2P Multimedia Plug-in

Инструкция
terms.php
Похожие темы




Запрещено категорически:
» Развязывать разборки (для этого есть ЛС)
» Оставлять комментарии, не относящиеся к содержанию материала.
» Добавлять спам, рекламу флуд..
К спаму относится:
1. Реклама любого направления.
2. Ссылки на сторонние ресурсы рекламного характера.
3. Ссылки на ресурсы порнографического направления.
4. Сылки на блоги и им подбным контeнтам.
» Запрещено оскорбление администрации, модераторов и пользователей.
» Часто писать с вкл. Caps Lock
»За нарушение правил бан или отключение без объяснений.
Уважайте чужой труд!

Правила могут дополняться и изменяться. С уважением Администрация.
[Profile] [PM]
Display posts    
Reply to topic

Current time is: 29-Jul 16:59

All times are UTC + 5



You cannot post new topics in this forum
You cannot reply to topics in this forum
You cannot edit your posts in this forum
You cannot delete your posts in this forum
You cannot vote in polls in this forum
You cannot attach files in this forum
You can download files in this forum










!ATTENTION!
The site does not give electronic versions of products, and is engaged only in a collecting and cataloguing of the references sent and published at a forum by our readers. If you are the legal owner of any submitted material and do not wish that the reference to it was in our catalogue, contact us and we shall immediately remove her. Files for an exchange on tracker are given by users of a site, and the administration does not bear the responsibility for their maintenance. The request to not fill in the files protected by copyrights, and also files of the illegal maintenance!