Земля отцов / Мадрас Кафе / Кафе «Мадрас» / Madras Cafe (Шуджит Сиркар / Shoojit Sircar) [2013, Индия, Боевик, триллер, драма, военный, HDRip] MVO (SDI Media) :: Spam

DL-List and Torrent activity [Update ]
Size:  1.46 GB   |    Registered:  5 years 9 months   |    Completed:  40 times
Seeders:  23  [  0 KB/s  ]   Leechers:  2  [  0 KB/s  ]  
 
     
 
 
Author Message

Иваныч ®

Gender: Male

Longevity: 5 years 9 months

Posts: 8246

Наличие запрета:


Карма  175 

Location: Россия,Курган



: 19 ()

Активный релизер  (250 и более релизов) (1) Активный релизер  (2000 релизов) (1) Активный релизер  (200 релизов) (1) Активному релизеру (5000 раздач) (1)
За внесенный вклад в развитие сайта (1) Активный релизер (500 релизов) (1) Реализация решений (1) Активный релизер  (150 релизов) (1)
Активный релизер  (100 релизов) (1) Активный релизер  (50 релизов) (1) Дизайн (1) От администрации (1)

Post 04-Nov-2015 13:47

[Quote]

Земля отцов / Мадрас Кафе / Кафе «Мадрас» / Madras Cafe
Страна: Индия
Жанр: Боевик, триллер, драма, военный
Год выпуска: 2013
Продолжительность: 02:07:24
Перевод: Профессиональный (многоголосый закадровый) SDI Media
Cубтитры: нет
Режиссер: Шуджит Сиркар / Shoojit Sircar
В ролях: Джон Абрахам, Наргис Факхри, Раши Кханна, Авийит Датт, Лина Мария Паул, Пракаш Белавади, Сиддартха Басу, Эджей Ратнам, Каннан Аруначалам, Дибанг
Описание: Действие фильма разворачивается в Индии и Шри-Ланке, это политический шпионский триллер на фоне гражданской войны. Главный герой — Викрам Сингх — офицер индийской армии, который назначается отделом исследований и анализа разведывательного управления на должность руководителя тайными операциями в Джаффне вскоре после того, как индийские миротворческие силы были вынуждены отступить. По мере его продвижения в Шри-Ланку с намерением подавить мятежников он запутывается в повстанческой и военной политике. Там он встречает британскую журналистку Джаю Сахни, которая хочет рассказать правду о гражданской войне.
Доп. информация: Исходник: BDRip (1080p)
Сведение звука: oktober (Спасибо!)
Сэмпл: http://multi-up.com/1065436
Качество видео: HDRip
Формат видео: AVI
Видео: XviD build 50, 720x304 (2.37:1), 24.000 fps, 1438 kbps avg
Аудио: AC3 Dolby Digital, 48 kHz, 2/0 (L,R) ch, 192 kbps

MediaInfo

General
Complete name : F:\Zemlya.otcov.2013.XviD.HDRip-Dego.avi
Format : AVI
Format/Info : Audio Video Interleave
File size : 1.46 GiB
Duration : 2h 7mn
Overall bit rate : 1 640 Kbps
Writing application : VirtualDubMod 1.5.10.2 (build 2540/release)
Writing library : VirtualDubMod build 2540/release
Video
ID : 0
Format : MPEG-4 Visual
Format profile : AdvancedSimple@L5
Format settings, BVOP : Yes
Format settings, QPel : No
Format settings, GMC : No warppoints
Format settings, Matrix : Custom
Codec ID : XVID
Codec ID/Hint : XviD
Duration : 2h 7mn
Bit rate : 1 438 Kbps
Width : 720 pixels
Height : 304 pixels
Display aspect ratio : 2.35
Frame rate : 24.000 fps
Resolution : 24 bits
Colorimetry : 4:2:0
Scan type : Progressive
Bits/(Pixel*Frame) : 0.274
Stream size : 1.28 GiB (88%)
Writing library : XviD 1.2.1 (UTC 2008-12-04)
Audio
ID : 1
Format : AC-3
Format/Info : Audio Coding 3
Codec ID : 2000
Duration : 2h 7mn
Bit rate mode : Constant
Bit rate : 192 Kbps
Channel(s) : 2 channels
Channel positions : L R
Sampling rate : 48.0 KHz
Stream size : 175 MiB (12%)
Alignment : Split accross interleaves
Interleave, duration : 42 ms (1.00 video frame)
Interleave, preload duration : 500 ms

Скриншот c названием фильма

Скриншоты

Сейчас вы смотрите Земля отцов / Мадрас Кафе / Кафе «Мадрас» / Madras Cafe (Шуджит Сиркар / Shoojit Sircar) [2013, Индия, Боевик, триллер, драма, военный, HDRip] MVO (SDI Media) :: Spam,не забываем оставлять комментарии!
Земля отцов / Мадрас Кафе / Кафе «Мадрас» / Madras Cafe (Шуджит Сиркар / Shoojit Sircar) [2013, Индия, Боевик, триллер, драма, военный, HDRip] MVO (SDI Media) :: Spam [mytorrnado.ru].t153.torrent 
Torrent: Registered [ 2015-11-04 13:47 ] · DDDCD6E26BBB4D64B40083BEC889F0166DCD3ED6 Google it!

Download .torrent

15 KB

Status: checked
Completed: 40 times
Тип торрента: Публичный  - Seed: 23;  Leeh: 2    
Size: 1.46 GB
Поделиться:
FAQ:
 
Как качать?
Как качать?
X
Скачайте торрент и откройте его в своем клиенте
uTorrent

скачать программу,
дождитесь окончания загрузки.
Если торрент закрыт? Инстркуция.
* Как смотреть?
Как смотреть?
X

Для работы Magic Player
Вам необходимо установить
Ace Stream P2P Multimedia Plug-in

Установить

Для работы Magic Player Вам необходимо включить
Ace Stream P2P Multimedia Plug-in

Инструкция
terms.php
Похожие темы




Запрещено категорически:
» Развязывать разборки (для этого есть ЛС)
» Оставлять комментарии, не относящиеся к содержанию материала.
» Добавлять спам, рекламу флуд..
К спаму относится:
1. Реклама любого направления.
2. Ссылки на сторонние ресурсы рекламного характера.
3. Ссылки на ресурсы порнографического направления.
4. Сылки на блоги и им подбным контeнтам.
» Запрещено оскорбление администрации, модераторов и пользователей.
» Часто писать с вкл. Caps Lock
»За нарушение правил бан или отключение без объяснений.
Уважайте чужой труд!

Правила могут дополняться и изменяться. С уважением Администрация.
[Profile] [PM]
Display posts    
Reply to topic

Current time is: 05-Aug 22:56

All times are UTC + 5



You cannot post new topics in this forum
You cannot reply to topics in this forum
You cannot edit your posts in this forum
You cannot delete your posts in this forum
You cannot vote in polls in this forum
You cannot attach files in this forum
You can download files in this forum










!ATTENTION!
The site does not give electronic versions of products, and is engaged only in a collecting and cataloguing of the references sent and published at a forum by our readers. If you are the legal owner of any submitted material and do not wish that the reference to it was in our catalogue, contact us and we shall immediately remove her. Files for an exchange on tracker are given by users of a site, and the administration does not bear the responsibility for their maintenance. The request to not fill in the files protected by copyrights, and also files of the illegal maintenance!