Лаванда / Lavender (Альтас Т. Али / Altas T. Ali) [2015, Индия, Мелодрама, драма, DVDRip-AVC] Sub Rus :: Spam

DL-List and Torrent activity [Update ]
Size:  1.67 GB   |    Registered:  5 years 8 months   |    Completed:  40 times
Seeders:  1  [  0 KB/s  ]  
 
     
 
 
 
Author Message

Иваныч ®

Gender: Male

Longevity: 5 years 8 months

Posts: 8227

Наличие запрета:


Карма  175 

Location: Россия,Курган



: 19 ()

От администрации (1) За внесенный вклад в развитие сайта (1) От администрации (1) Активный релизер  (50 релизов) (1)
Помощь (1) Активный релизер  (2000 релизов) (1) Активный релизер  (3000 релизов) (1) Активисту (1)
Активный релизер  (150 релизов) (1) Активный релизер  (200 релизов) (1) Техпддержка (1) Активный релизер  (100 релизов) (1)

Post 04-Nov-2015 13:52

[Quote]

Лаванда / Lavender Страна: Индия
Жанр: Мелодрама, драма
Год выпуска: 2015
Продолжительность: 02:01:18
Перевод: Субтитры
Cубтитры: русские
Оригинальная аудиодорожка: Малаялам
Режиссер: Альтас Т. Али / Altas T. Ali
В ролях: Рахман, Эльхам Мирза, Нишан, Ануп Менон, Калпана, Говинд Падмасурья
Описание: Кабир Аббас - начинающий режиссёр, и для своего второго фильма он выбрал особенную историю, основанную на мемуарах бывшего офицера полиции. И в этой истории пересеклись три жизни, три разных личности, изменившие мир друг друга..
Релиз-групп: Bee Movie и Deepavali
Перевод: Ратюся
Перевод песен, диалоги с английского: Sima Kivi
Доп. информация: Это ремейк Ромашка / Daisy / 2006 (корея)

Качество видео: DVDRip-AVC
Формат видео: MKV
Видео: H.264, 1152x488 pixel, 23.976 fps, 1520 kbps
Аудио: AC3, 48 kHz, 5.1 (6 ch) channels, 448 kbps
Формат субтитров: hardsub (неотключаемые)

MediaInfo

C:\Users\алла\Videos\бимуви\Lavanda.2015.DvDRip.X264.BeeMovie.Deepavali.mkv
General
Unique ID : 189327404754816491776178703879571386285 (0x8E6F21BE5E541C2CA313146831D62FAD)
Complete name : C:\Users\алла\Videos\бимуви\Lavanda.2015.DvDRip.X264.BeeMovie.Deepavali.mkv
Format : Matroska
Format version : Version 2
File size : 1.67 GiB
Duration : 2h 1mn
Overall bit rate : 1 969 Kbps
Encoded date : UTC 2015-10-15 08:51:25
Writing application : mkvmerge v6.1.0 ('Old Devil') built on Mar 4 2013 09:10:42
Writing library : libebml v1.3.0 + libmatroska v1.4.0
Video #1
ID : 1
Format : AVC
Format/Info : Advanced Video Codec
Format profile : High@L4.1
Format settings, CABAC : Yes
Format settings, ReFrames : 4 frames
Codec ID : V_MPEG4/ISO/AVC
Duration : 2h 1mn
Bit rate : 1 520 Kbps
Width : 1 152 pixels
Height : 488 pixels
Display aspect ratio : 2.35:1
Frame rate : 23.976 fps
Color space : YUV
Chroma subsampling : 4:2:0
Bit depth : 8 bits
Scan type : Progressive
Bits/(Pixel*Frame) : 0.113
Stream size : 1.26 GiB (75%)
Writing library : x264 core 130 r2273 b3065e6
Encoding settings : cabac=1 / ref=2 / deblock=1:-2:-1 / analyse=0x3:0x113 / me=hex / subme=4 / psy=1 / psy_rd=1.00:0.20 / mixed_ref=0 / me_range=16 / chroma_me=1 / trellis=1 / 8x8dct=1 / cqm=0 / deadzone=21,11 / fast_pskip=1 / chroma_qp_offset=-1 / threads=3 / lookahead_threads=1 / sliced_threads=0 / nr=0 / decimate=0 / interlaced=0 / bluray_compat=0 / constrained_intra=0 / bframes=3 / b_pyramid=2 / b_adapt=1 / b_bias=0 / direct=1 / weightb=1 / open_gop=0 / weightp=1 / keyint=250 / keyint_min=23 / scenecut=40 / intra_refresh=0 / rc_lookahead=20 / rc=2pass / mbtree=1 / bitrate=1520 / ratetol=1.0 / qcomp=0.60 / qpmin=0 / qpmax=69 / qpstep=4 / cplxblur=20.0 / qblur=0.5 / vbv_maxrate=50000 / vbv_bufsize=50000 / nal_hrd=none / ip_ratio=1.40 / aq=1:1.00
Audio #2
ID : 2
Format : AC-3
Format/Info : Audio Coding 3
Mode extension : CM (complete main)
Codec ID : A_AC3
Duration : 2h 1mn
Bit rate mode : Constant
Bit rate : 448 Kbps
Channel(s) : 6 channels
Channel positions : Front: L C R, Side: L R, LFE
Sampling rate : 48.0 KHz
Bit depth : 16 bits
Compression mode : Lossy
Stream size : 389 MiB (23%)

Скриншот c названием фильма

Сейчас вы смотрите Лаванда / Lavender (Альтас Т. Али / Altas T. Ali) [2015, Индия, Мелодрама, драма, DVDRip-AVC] Sub Rus :: Spam,не забываем оставлять комментарии!
Лаванда / Lavender (Альтас Т. Али / Altas T. Ali) [2015, Индия, Мелодрама, драма, DVDRip-AVC] Sub Rus :: Spam [mytorrnado.ru].t155.torrent 
Torrent: Registered [ 2015-11-04 13:52 ] · 93D1EA55197CF5AACA45A5B412E1393968D93C29 Google it!

Download .torrent

17 KB

Status: checked
Completed: 40 times
Тип торрента: Публичный  - Seed: 1;    
Size: 1.67 GB
Поделиться:
FAQ:
 
Как качать?
Как качать?
X
Скачайте торрент и откройте его в своем клиенте
uTorrent

скачать программу,
дождитесь окончания загрузки.
Если торрент закрыт? Инстркуция.
* Как смотреть?
Как смотреть?
X

Для работы Magic Player
Вам необходимо установить
Ace Stream P2P Multimedia Plug-in

Установить

Для работы Magic Player Вам необходимо включить
Ace Stream P2P Multimedia Plug-in

Инструкция
terms.php
Похожие темы




Запрещено категорически:
» Развязывать разборки (для этого есть ЛС)
» Оставлять комментарии, не относящиеся к содержанию материала.
» Добавлять спам, рекламу флуд..
К спаму относится:
1. Реклама любого направления.
2. Ссылки на сторонние ресурсы рекламного характера.
3. Ссылки на ресурсы порнографического направления.
4. Сылки на блоги и им подбным контeнтам.
» Запрещено оскорбление администрации, модераторов и пользователей.
» Часто писать с вкл. Caps Lock
»За нарушение правил бан или отключение без объяснений.
Уважайте чужой труд!

Правила могут дополняться и изменяться. С уважением Администрация.
[Profile] [PM]
Display posts    
Reply to topic

Current time is: 01-Aug 15:28

All times are UTC + 5



You cannot post new topics in this forum
You cannot reply to topics in this forum
You cannot edit your posts in this forum
You cannot delete your posts in this forum
You cannot vote in polls in this forum
You cannot attach files in this forum
You can download files in this forum










!ATTENTION!
The site does not give electronic versions of products, and is engaged only in a collecting and cataloguing of the references sent and published at a forum by our readers. If you are the legal owner of any submitted material and do not wish that the reference to it was in our catalogue, contact us and we shall immediately remove her. Files for an exchange on tracker are given by users of a site, and the administration does not bear the responsibility for their maintenance. The request to not fill in the files protected by copyrights, and also files of the illegal maintenance!