Красотка / Khoobsurat (Шашанка Гхош / Shashanka Ghosh) [2014, Индия, Мелодрама, комедия, DVDRip] DVO + Sub Rus (песни) :: Spam

DL-List and Torrent activity [Update ]
Size:  1.05 GB   |    Registered:  5 years 8 months   |    Completed:  58 times
Seeders:  1  [  0 KB/s  ]  
 
     
 
 
 
Author Message

Иваныч ®

Gender: Male

Longevity: 5 years 8 months

Posts: 8203

Наличие запрета:


Карма  175 

Location: Россия,Курган



: 19 ()

Активный релизер  (2000 релизов) (1) Активный релизер  (200 релизов) (1) От администрации (1) От администрации (1)
Помощь (1) Активный релизер  (3000 релизов) (1) Техпддержка (1) Активный релизер  (150 релизов) (1)
Активному релизеру (5000 раздач) (1) Активный релизер  (100 релизов) (1) За внесенный вклад в развитие сайта (1) Активный релизер (500 релизов) (1)

Post 04-Nov-2015 13:55

[Quote]

Красотка / Khoobsurat-=В тридевятом царстве, в тридесятом государстве
жили-были король и королева...=-

-Страна: Индия
Жанр: Мелодрама, комедия
Год выпуска: 2014
Продолжительность: 02:08:16-Перевод: Любительский (двухголосый закадровый) - DeadSno & den904
Субтитры: Есть (только песни)--Режиссер: Шашанка Гхош / Shashanka Ghosh-В ролях: Сонам Капур, Фавад Афзал Кхан, Кирон Кхер, Кайзаад Котваль, Аамир Раза Хуссейн, Рэтна Патхак, Ашок Бантхия, Адити Рао Хидари, Яшвант Сингх--Описание: Строптивая Мили работает спортивным физиотерапевтом в Индийской Премьер-Лиге. Однажды, её коллега просит заменить его и поехать в Самбалгарх, чтобы заняться лечением короля Шекхара Сингха Ратхора. Приехав во дворец, Мили обнаруживает для себя, что этой семье абсолютно чужды веселье, радость и семейные разговоры за столом. Все члены королевской династии живут по строгим правилам и законам. Она решает изменить систему этого дома, тем самым привлекая внимание единственного наследника трона, обаятельного Викрама Сингха Ратхора...
(с) Honey-- --Качество видео: DVDRip
Формат видео: AVI-Видео: 720x304 (2.37:1), 23.976 fps, XviD build 50 ~970 kbps avg, 0.19 bit/pixel
Аудио: 48 kHz, AC3 Dolby Digital, 2/0 (L,R) ch, ~192 kbps
Субтитры: ASS (отдельным файлом)--Сэмпл / Sample--Релиз-группа:
Творческая озвучка: DeadSno & den904 (спасибо!)
Перевод на русский язык: Honey&Haseena (спасибо!)-- --

Скриншот с названием

-

Скриншоты

-

MI

General
Complete name : H:\[DVDRip]\[VO]\Krasotka.2014.DVDRip.XviD.Kolobok\Krasotka.2014.DVDRip.XviD.Kolobok.avi
Format : AVI
Format/Info : Audio Video Interleave
File size : 1.05 GiB
Duration : 2h 8mn
Overall bit rate : 1 172 Kbps
Writing application : VirtualDubModRus 1.5.10.2 (build 2542/release)
Writing library : VirtualDubMod build 2542/release
Video
ID : 0
Format : MPEG-4 Visual
Format profile : Advanced Simple@L5
Format settings, BVOP : 2
Format settings, QPel : No
Format settings, GMC : No warppoints
Format settings, Matrix : Default (H.263)
Codec ID : XVID
Codec ID/Hint : XviD
Duration : 2h 8mn
Bit rate : 970 Kbps
Width : 720 pixels
Height : 304 pixels
Display aspect ratio : 2.35:1
Original display aspect ratio : 2.35:1
Frame rate : 23.976 fps
Color space : YUV
Chroma subsampling : 4:2:0
Bit depth : 8 bits
Scan type : Progressive
Compression mode : Lossy
Bits/(Pixel*Frame) : 0.185
Stream size : 890 MiB (83%)
Writing library : XviD 1.2.1 (UTC 2008-12-04)
Audio
ID : 1
Format : AC-3
Format/Info : Audio Coding 3
Mode extension : CM (complete main)
Format settings, Endianness : Big
Codec ID : 2000
Duration : 2h 8mn
Bit rate mode : Constant
Bit rate : 192 Kbps
Channel(s) : 2 channels
Channel positions : Front: L R
Sampling rate : 48.0 KHz
Bit depth : 16 bits
Compression mode : Lossy
Stream size : 176 MiB (16%)
Alignment : Split accross interleaves
Interleave, duration : 42 ms (1.00 video frame)
Interleave, preload duration : 500 ms
--
Сейчас вы смотрите Красотка / Khoobsurat (Шашанка Гхош / Shashanka Ghosh) [2014, Индия, Мелодрама, комедия, DVDRip] DVO + Sub Rus (песни) :: Spam,не забываем оставлять комментарии!
Красотка / Khoobsurat (Шашанка Гхош / Shashanka Ghosh) [2014, Индия, Мелодрама, комедия, DVDRip] DVO + Sub Rus (песни) :: Spam [mytorrnado.ru].t157.torrent 
Torrent: Registered [ 2015-11-04 13:55 ] · B2FAE4937BA9859263D31E678AA8EA5A3674400E Google it!

Download .torrent

11 KB

Status: checked
Completed: 58 times
Тип торрента: Публичный  - Seed: 1;    
Size: 1.05 GB
Поделиться:
FAQ:
 
Как качать?
Как качать?
X
Скачайте торрент и откройте его в своем клиенте
uTorrent

скачать программу,
дождитесь окончания загрузки.
Если торрент закрыт? Инстркуция.
* Как смотреть?
Как смотреть?
X

Для работы Magic Player
Вам необходимо установить
Ace Stream P2P Multimedia Plug-in

Установить

Для работы Magic Player Вам необходимо включить
Ace Stream P2P Multimedia Plug-in

Инструкция
terms.php
Похожие темы




Запрещено категорически:
» Развязывать разборки (для этого есть ЛС)
» Оставлять комментарии, не относящиеся к содержанию материала.
» Добавлять спам, рекламу флуд..
К спаму относится:
1. Реклама любого направления.
2. Ссылки на сторонние ресурсы рекламного характера.
3. Ссылки на ресурсы порнографического направления.
4. Сылки на блоги и им подбным контeнтам.
» Запрещено оскорбление администрации, модераторов и пользователей.
» Часто писать с вкл. Caps Lock
»За нарушение правил бан или отключение без объяснений.
Уважайте чужой труд!

Правила могут дополняться и изменяться. С уважением Администрация.
[Profile] [PM]
Display posts    
Reply to topic

Current time is: 24-Jul 17:11

All times are UTC + 5



You cannot post new topics in this forum
You cannot reply to topics in this forum
You cannot edit your posts in this forum
You cannot delete your posts in this forum
You cannot vote in polls in this forum
You cannot attach files in this forum
You can download files in this forum










!ATTENTION!
The site does not give electronic versions of products, and is engaged only in a collecting and cataloguing of the references sent and published at a forum by our readers. If you are the legal owner of any submitted material and do not wish that the reference to it was in our catalogue, contact us and we shall immediately remove her. Files for an exchange on tracker are given by users of a site, and the administration does not bear the responsibility for their maintenance. The request to not fill in the files protected by copyrights, and also files of the illegal maintenance!