Звёздные войны: Бракованная партия / Star Wars: The Bad Batch (Сезон 1 , Серия 1-13 из 16) (Дэйв Филони) [2021,Мультсериал,WEB-DLRip - HEVC - 1080p] [ LostFilm +HDRezka +AlexFilm +NewStudio+NewComers+ Ukr +Eng]+[Subs Rus , ENG]

DL-List and Torrent activity [Update ]
Size:  15.04 GB   |    Registered:  1 day 2 hours   |    Completed:  21 times

Seeder not seen: Never

 
     
 
 
 
Author Message

Nikolai.Baranov ®

Gender: Unknown

Longevity: 5 years 7 months

Posts: 29

Наличие запрета:


Карма  0 


: 2 ()

За активность в разделе сериалов (1) За активность в разделе сериалов (1)

Post 12-May-2021 22:02

[Quote]

-- -- Звёздные войны: Бракованная партия / Star Wars: The Bad Batch - (Сезон 1 , Серия 1-13 из 16) ----Год выпуска: 2021
Выпущено: США, Disney+, Lucasfilm Animation, Lucasfilm Ltd.
Жанр: Мультсериал, фантастика, фэнтези, боевик, драма, приключения
Продолжительность: 01:10:00
Сезон:1
Серия: 1-13
Количество серий в сезоне:16 --Озвучка # 1: Профессиональный многоголосый- LostFilm - Русский
Озвучка # 2: Профессиональный многоголосый- NewComers - Русский
Озвучка 31: Профессиональный многоголосый- HDRezka Studio - Русский
Озвучка # 4: Профессиональный многоголосый- NewStudio - Русский
Озвучка # 5: Профессиональный многоголосый- AlexFilm - Русский
Озвучка # 6: Профессиональный многоголосый- TVShows - Русский
Озвучка # 7: Профессиональный многоголосый- - Украинский
Озвучка # 8: Профессиональный многоголосый -Английский - Оригинал--

Субтитры :


Субтитры (UTF-8):вшитые
#1 - Русские - Russian (включены по умолчанию)
#2 - Русские- Russian (Forced)
#3- Английские - English (SDH)
#5- Украинские


Внешние:
#1 - Русские - Russian
#2 - Русские- Russian (Forced)
#3- Английские - English (SDH)
#5- Украинские
--Релиз Без Рекламы --MDB 8.9 --Режиссеры:
Дэйв Филони --В ролях: Ди Брэдли Бэйкер, Эрнесто Баутиста, Мин-На Вэнь, Ношир Далаль, Эндрю Кисино, Стефен Стэнтон -- Сериал поведает о похождениях отряда клонов-коммандос, ищущих своё место в галактике, стремительно меняющейся после Войны клонов. В команду наёмников входят экспериментальные клоны с разнообразными генетическими отклонениями. Каждый боец обладает уникальным умением, что превращает «Бракованную партию» в невероятно эффективную боевую единицу.
-- --Качество : WEB-DLRip - HEVC 10bit - 1080p
Формат: MKV
Видео кодек: H265
Видео: 3612 Кбит/сек,1920х800 , (2,40,1),в 25.000 кадр/сек, HEVC (Main10@L5.2@Main)--Аудио Кодек:Аудио Кодек:AC3
Аудио #1: MVO LostFilm @DD5.1 AC3, 320 Kbps, 48.0 KHz, 6 ch- LostFilm - Русский
Аудио #2: MVO NewComers @DD5.1 AC3, 320 Kbps, 48.0 KHz, 6 ch- NewComers - Русский
Аудио # 3: MVO HDRezka Studio @DD5.1 AC3, 320 Kbps, 48.0 KHz, 6 ch - HDRezka Studio - Русский
Аудио #4: MVO AlexFilm @DD5.1 AC3, 320 Kbps, 48.0 KHz, 6 ch - AlexFilm - Русский
Аудио #5: MVO NewStudio @DD5.1 AC3, 320 Kbps, 48.0 KHz, 6 ch - NewStudio - Русский
Аудио #6: _MVO TVShows @DD5.1 AC3, 320 Kbps, 48.0 KHz, 6 ch - TVShows - Русский
Аудио #7: MVO Ukr @DD5.1 AC3, 320 Kbps, 48.0 KHz, 6 ch - Украинский
Аудио #8: English @DD5.1 AC3, 320 Kbps, 48.0 KHz, 6 ch- English - Оригинал-- --

Доп. информация:

Звуковая дорожка сделана путем наложения чистого голоса озвучивателей на центральный канал оригинальной дорожки. Качество идентично звуковой дорожке.
--

Список эпизодов сезона


1 сезон 1 серия - Последствия - Aftermath
1 сезон 2 серия - В бегах - Cut and Run
1 сезон 3 серия - Замена - Replacements
1 сезон 4 серия - В тупике - Cornered
1 сезон 5 серия - Погром - Rampage
1 сезон 6 серия - Утилизация - Decommissioned
1 сезон 7 серия - Боевые шрамы - Battle Scars
1 сезон 8 серия - Воссоединение - Reunion
1 сезон 9 серия - Сбежавшая цель - Bounty Lost
1 сезон 10 серия - Общая позиция - Common Ground
1 сезон 11 серия - Сделка с дьяволом - Devil's Deal
1 сезон 12 серия - Спасение на Рилоте - Rescue on Ryloth
1 сезон 13 серия - Улей - Infested
--

MediaInfo

Общее
Уникальный идентификатор : 330167581816025011291286801509092675261 (0xF863F69774D3734946DD3A4D470FCEBD)
Полное имя : F:\Звёздные войны Бракованная партия - Star Wars The Bad Batch\2021_Star.Wars.The.Bad.Batch.S01_HEVC_Н265_DD5.1_N.B_HD_1080_5xRus_Ukr_Eng\2021_Star.Wars.The.Bad.Batch.S01E01_HEVC_Н265_DD5.1_N.B_HD_1080_5xRus_Ukr_Eng.mkv
Формат : Matroska
Версия формата : Version 4
Размер файла : 3,07 Гбайт
Продолжительность : 1 ч. 11 м.
Общий поток : 6 176 Кбит/сек
Название фильма : 2021 Star Wars The Bad Batch S01E01 @ Nikolai.Baranov & PIRATIYA
Дата кодирования : UTC 2021-05-25 15:51:33
Программа кодирования : mkvmerge v57.0.0 ('Till The End') 64-bit
Библиотека кодирования : libebml v1.4.2 + libmatroska v1.6.4
Видео
Идентификатор : 1
Формат : HEVC
Формат/Информация : High Efficiency Video Coding
Профиль формата : Main 10@L5.2@Main
Идентификатор кодека : V_MPEGH/ISO/HEVC
Продолжительность : 1 ч. 11 м.
Битрейт : 3 612 Кбит/сек
Ширина : 1 920 пикселей
Высота : 800 пикселей
Соотношение сторон : 2,40:1
Режим частоты кадров : Постоянный
Частота кадров : 25,000 кадров/сек
Цветовое пространство : YUV
Субдискретизация насыщенности : 4:2:0
Битовая глубина : 10 бит
Бит/(Пиксели*Кадры) : 0.094
Размер потока : 1,79 Гбайт (58%)
Заголовок : 2021_Star.Wars.The.Bad.Batch.S01E01_HEVC_Н265_DD5.1_N.B_HD_1080_5xRus_Ukr_Eng
Язык : Russian
Default : Да
Forced : Нет
Цветовой диапазон : Full
Основные цвета : BT.709
Характеристики трансфера : BT.709
Коэффициенты матрицы : BT.709
Аудио #1
Идентификатор : 4
Формат : AC-3
Формат/Информация : Audio Coding 3
Коммерческое название : Dolby Digital
Идентификатор кодека : A_AC3
Продолжительность : 1 ч. 11 м.
Вид битрейта : Постоянный
Битрейт : 320 Кбит/сек
Каналы : 6 каналов
Channel layout : L R C LFE Ls Rs
Частота : 48,0 КГц
Частота кадров : 31,250 кадров/сек (1536 SPF)
Метод сжатия : С потерями
Размер потока : 163 Мбайт (5%)
Заголовок : MVO LostFilm @DD5.1 AC3, 320 Kbps, 48.0 KHz, 6 ch
Язык : Russian
Service kind : Complete Main
Default : Да
Forced : Нет
Аудио #2
Идентификатор : 5
Формат : AC-3
Формат/Информация : Audio Coding 3
Коммерческое название : Dolby Digital
Идентификатор кодека : A_AC3
Продолжительность : 1 ч. 11 м.
Вид битрейта : Постоянный
Битрейт : 320 Кбит/сек
Каналы : 6 каналов
Channel layout : L R C LFE Ls Rs
Частота : 48,0 КГц
Частота кадров : 31,250 кадров/сек (1536 SPF)
Метод сжатия : С потерями
Размер потока : 163 Мбайт (5%)
Заголовок : MVO NewComers @DD5.1 AC3, 320 Kbps, 48.0 KHz, 6 ch
Язык : Russian
Service kind : Complete Main
Default : Нет
Forced : Нет
Аудио #3
Идентификатор : 6
Формат : AC-3
Формат/Информация : Audio Coding 3
Коммерческое название : Dolby Digital
Идентификатор кодека : A_AC3
Продолжительность : 1 ч. 11 м.
Вид битрейта : Постоянный
Битрейт : 320 Кбит/сек
Каналы : 6 каналов
Channel layout : L R C LFE Ls Rs
Частота : 48,0 КГц
Частота кадров : 31,250 кадров/сек (1536 SPF)
Метод сжатия : С потерями
Размер потока : 163 Мбайт (5%)
Заголовок : MVO HDRezka Studio @DD5.1 AC3, 320 Kbps, 48.0 KHz, 6 ch
Язык : Russian
Service kind : Complete Main
Default : Нет
Forced : Нет
Аудио #4
Идентификатор : 7
Формат : AC-3
Формат/Информация : Audio Coding 3
Коммерческое название : Dolby Digital
Идентификатор кодека : A_AC3
Продолжительность : 1 ч. 11 м.
Вид битрейта : Постоянный
Битрейт : 320 Кбит/сек
Каналы : 6 каналов
Channel layout : L R C LFE Ls Rs
Частота : 48,0 КГц
Частота кадров : 31,250 кадров/сек (1536 SPF)
Метод сжатия : С потерями
Размер потока : 163 Мбайт (5%)
Заголовок : MVO AlexFilm @DD5.1 AC3, 320 Kbps, 48.0 KHz, 6 ch
Язык : Russian
Service kind : Complete Main
Default : Нет
Forced : Нет
Аудио #5
Идентификатор : 8
Формат : AC-3
Формат/Информация : Audio Coding 3
Коммерческое название : Dolby Digital
Идентификатор кодека : A_AC3
Продолжительность : 1 ч. 11 м.
Вид битрейта : Постоянный
Битрейт : 320 Кбит/сек
Каналы : 6 каналов
Channel layout : L R C LFE Ls Rs
Частота : 48,0 КГц
Частота кадров : 31,250 кадров/сек (1536 SPF)
Метод сжатия : С потерями
Размер потока : 163 Мбайт (5%)
Заголовок : MVO NewStudio @DD5.1 AC3, 320 Kbps, 48.0 KHz, 6 ch
Язык : Russian
Service kind : Complete Main
Default : Нет
Forced : Нет
Аудио #6
Идентификатор : 9
Формат : AC-3
Формат/Информация : Audio Coding 3
Коммерческое название : Dolby Digital
Идентификатор кодека : A_AC3
Продолжительность : 1 ч. 11 м.
Вид битрейта : Постоянный
Битрейт : 320 Кбит/сек
Каналы : 6 каналов
Channel layout : L R C LFE Ls Rs
Частота : 48,0 КГц
Частота кадров : 31,250 кадров/сек (1536 SPF)
Метод сжатия : С потерями
Размер потока : 163 Мбайт (5%)
Заголовок : MVO Ukr @DD5.1 AC3, 320 Kbps, 48.0 KHz, 6 ch
Язык : Ukrainian
Service kind : Complete Main
Default : Нет
Forced : Нет
Аудио #7
Идентификатор : 10
Формат : AC-3
Формат/Информация : Audio Coding 3
Коммерческое название : Dolby Digital
Идентификатор кодека : A_AC3
Продолжительность : 1 ч. 11 м.
Вид битрейта : Постоянный
Битрейт : 320 Кбит/сек
Каналы : 6 каналов
Channel layout : L R C LFE Ls Rs
Частота : 48,0 КГц
Частота кадров : 31,250 кадров/сек (1536 SPF)
Метод сжатия : С потерями
Размер потока : 163 Мбайт (5%)
Заголовок : English @DD5.1 AC3, 320 Kbps, 48.0 KHz, 6 ch
Язык : English
Service kind : Complete Main
Default : Нет
Forced : Нет
Аудио #8
Идентификатор : 12
Формат : AC-3
Формат/Информация : Audio Coding 3
Коммерческое название : Dolby Digital
Идентификатор кодека : A_AC3
Продолжительность : 1 ч. 11 м.
Вид битрейта : Постоянный
Битрейт : 320 Кбит/сек
Каналы : 6 каналов
Channel layout : L R C LFE Ls Rs
Частота : 48,0 КГц
Частота кадров : 31,250 кадров/сек (1536 SPF)
Метод сжатия : С потерями
Размер потока : 163 Мбайт (5%)
Заголовок : MVO TVShows @DD5.1 AC3, 320 Kbps, 48.0 KHz, 6 ch
Язык : Russian
Service kind : Complete Main
Default : Нет
Forced : Нет
Текст #1
Идентификатор : 2
Формат : UTF-8
Идентификатор кодека : S_TEXT/UTF8
Идентификатор кодека/Информация : UTF-8 Plain Text
Продолжительность : 1 ч. 9 м.
Битрейт : 0 бит/сек
Count of elements : 2
Размер потока : 124 байт (0%)
Заголовок : Последствия-Russian-Forced
Язык : Russian
Default : Да
Forced : Нет
Текст #2
Идентификатор : 3
Формат : UTF-8
Идентификатор кодека : S_TEXT/UTF8
Идентификатор кодека/Информация : UTF-8 Plain Text
Продолжительность : 1 ч. 9 м.
Битрейт : 85 бит/сек
Count of elements : 814
Размер потока : 43,5 Кбайт (0%)
Заголовок : -Последствия-Russian
Язык : Russian
Default : Нет
Forced : Нет
Текст #3
Идентификатор : 11
Формат : UTF-8
Идентификатор кодека : S_TEXT/UTF8
Идентификатор кодека/Информация : UTF-8 Plain Text
Продолжительность : 1 ч. 9 м.
Битрейт : 55 бит/сек
Count of elements : 893
Размер потока : 28,4 Кбайт (0%)
Заголовок : Aftermath-Original - SDH
Язык : English
Default : Нет
Forced : Нет
Меню
00:00:00.000 : ru:Глава 01 / ru:Глава 01 / ru:Глава 01 / ru:Глава 01 / ru:Глава 01 / ru:Глава 01 / ru:Глава 01 / ru:Глава 01 / ru:Глава 01 / ru:Глава 01 / ru:Глава 01 / ru:Глава 01
--

Скриншоты

----
1 Сезон
--Внимание! Раздача пополняется по мере выхода новых серий!--

Внимание! Раздача ведётся путём добавления новых серий!

Раздача ведётся путём добавления новых серий; при каждом добавлении создётся новый торрент.
Чтобы начать докачку новой серии, пользователям необходимо сделать следующее:
1. остановить скачивание,
2. удалить старый торрент у себя из клиента (старые серии удалять не надо),
3. скачать новый торрент и запустить его у себя в клиенте вместо старого, при этом указать клиенту путь в старую папку, куда и должно происходить скачивание новых серий.
Ваш клиент при этом должен произвести хеширование (проверку) старой папки (если не производит сам - помогите ему сделать это), и будет докачивать только те серии которых у вас ещё нет. Старые серии при этом не удаляются, а продолжают раздаваться!
Eсли вы уже удалили старые серии, то предотвратить повторную закачку старых серий можно, отжав галочку в соответсвующих местах при запуске нового торрента. По возможности, желательно не удалять старые серии как можно дольше, чтобы релизёр не столько продолжал раздавать старые серии, а смог сконцентрироваться на новых.
Совет для тех, кто не хочет ждать перехеширования:
Создайте ещё одну папку рядом с папкой сериала (рядом, а не в ней!!!). Каждую новую серию после удачной загрузки копируйте в новую папку так чтобы ваша основная папка всегда была пуста. Когда ваш новый торрент предложит вам закачать все файлы, выберете только последнюю. Для сидирования же укажите адрес новой папки.
Как закачать отдельный файл из торрента или докачать ранее пропущенные файлы торрента!

Как закачать отдельный файл

1. Открыть торрент
2. Снять галки с тех файлов торрента, которые мы не хотим закачивать. Оставляем только на нужных нам файлах (файле).
3. Нажать О.К.
В клиенте utorrent
Инструкция
1) Открыть торрент

2) Снять галки с тех файлов торрента, которые мы не хотим закачивать:
* либо вручную, снимая с каждого файла галку( скрин №1)
* либо, нажав кнопку "Снять метки (Select None)", сняв сразу со всех файлов(скрин №2)
№1

№2

Оставляем только на нужных нам файлах (файле).

3)Нажать О.К
-- -- ----Внимание!! ! 27 . 07. 2021. РАЗДАЧА ОБНОВЛЕНА. ДОБАВЛЕНА-13-СЕРИЯ . ОБНОВИТЕ ТОРЕНТ ФАЙЛ. ПРИЯТНОГО ПРОСМОТРА . Поблагодарить:
ЯД: 410017546713876
--Релиз от: Nikolai.Baranov & PIRATIYA -- -- -- --Время раздачи : 24/7---
Звёздные войны: Бракованная партия / Star Wars: The Bad Batch (Сезон 1 , Серия 1-13 из 16) (Дэйв Филони) [2021,Мультсериал,WEB-DLRip - HEVC - 1080p] [ LostFilm +HDRezka +AlexFilm +NewStudio+NewComers+ Ukr +Eng]+[Subs Rus , ENG] [mytorrnado.ru].t16967.torrent
Torrent: INFO - HASH не доступен.

Download

44 KB

Status: * not checked
Completed: 21 times
Тип торрента:    
Size: 15.04 GB
Поделиться:
FAQ:
 
Как качать?
Как качать?
X
Скачайте торрент и откройте его в своем клиенте
uTorrent

скачать программу,
дождитесь окончания загрузки.
Если торрент закрыт? Инстркуция.
* Как смотреть?
Как смотреть?
X

Для работы Magic Player
Вам необходимо установить
Ace Stream P2P Multimedia Plug-in

Установить

Для работы Magic Player Вам необходимо включить
Ace Stream P2P Multimedia Plug-in

Инструкция
terms.php
Похожие темы




Запрещено категорически:
» Развязывать разборки (для этого есть ЛС)
» Оставлять комментарии, не относящиеся к содержанию материала.
» Добавлять спам, рекламу флуд..
К спаму относится:
1. Реклама любого направления.
2. Ссылки на сторонние ресурсы рекламного характера.
3. Ссылки на ресурсы порнографического направления.
4. Сылки на блоги и им подбным контeнтам.
» Запрещено оскорбление администрации, модераторов и пользователей.
» Часто писать с вкл. Caps Lock
»За нарушение правил бан или отключение без объяснений.
Уважайте чужой труд!

Правила могут дополняться и изменяться. С уважением Администрация.
[Profile] [PM]
Display posts    
Reply to topic

Current time is: 28-Jul 17:39

All times are UTC + 5



You cannot post new topics in this forum
You cannot reply to topics in this forum
You cannot edit your posts in this forum
You cannot delete your posts in this forum
You cannot vote in polls in this forum
You cannot attach files in this forum
You can download files in this forum










!ATTENTION!
The site does not give electronic versions of products, and is engaged only in a collecting and cataloguing of the references sent and published at a forum by our readers. If you are the legal owner of any submitted material and do not wish that the reference to it was in our catalogue, contact us and we shall immediately remove her. Files for an exchange on tracker are given by users of a site, and the administration does not bear the responsibility for their maintenance. The request to not fill in the files protected by copyrights, and also files of the illegal maintenance!