Атака титанов. Фильм первый: Жестокий мир / Shingeki no kyojin (Синдзи Хигути / Shinji Higuchi) [2015, Япония, Ужасы, фэнтези, боевик, драма, приключения, WEB-DLRip] Dub (iTunes) :: Spam

DL-List and Torrent activity [Update ]
Size:  1.37 GB   |    Registered:  5 years 8 months   |    Completed:  29 times

Seeder not seen: Never

 
     
 
 
 
Author Message

Иваныч ®

Gender: Male

Longevity: 5 years 8 months

Posts: 8227

Наличие запрета:


Карма  175 

Location: Россия,Курган



: 19 ()

Дизайн (1) Активный релизер  (100 релизов) (1) Активисту (1) Активный релизер  (250 и более релизов) (1)
Активный релизер  (150 релизов) (1) От администрации (1) За внесенный вклад в развитие сайта (1) От администрации (1)
Активный релизер (500 релизов) (1) Реализация решений (1) Активный релизер  (1000 релизов) (1) Активному релизеру (5000 раздач) (1)

Post 04-Nov-2015 21:38

[Quote]

Атака титанов. Фильм первый: Жестокий мир / Shingeki no kyojin
Страна: Япония
Жанр: Ужасы, фэнтези, боевик, драма, приключения
Год выпуска: 2015
Продолжительность: 01:38:27
Перевод: Профессиональный (дублированный) iTunes
Cубтитры: нет
Оригинальная аудиодорожка: нет
Режиссер: Синдзи Хигути / Shinji Higuchi
В ролях: Харума Миура, Кико Мидзухара, Каната Хонго, Сатоми Исихара, Нанами Сакураба, Такахиро Миура, Хироки Хасегава, Аямэ Мисаки, Пьер Таки, Дзюн Кунимура
Описание: Вместо прогресса человечество оказалось отброшено назад появлением расы гигантов. Огромные гуманоиды не обладали ни речью, ни разумом, но при этом пожирали людей, как чипсы, а обычное оружие уровня XIX века оказалось бессильно. Остатки рода людского смогли выжить лишь за циклопическими стенами, которые тройным кольцом опоясали последние поля, города и деревни. Затишье продолжалось сто лет, за это время люди успокоились, армия была сокращена, а городская стража превратилась в дармоедов. Боеспособность сохранил лишь Разведкорпус — но кому нужны самоубийцы, что постоянно рискуют жизнью за стенами, когда можно спокойно сидеть за каменным забором?
Сэмпл: http://multi-up.com/1073728
Качество видео: WEB-DLRip
Формат видео: AVI
Видео: Xvid 720x304 24.00fps 1 786 Kbps
Аудио: Dolby AC3 48000Hz stereo 192kbps

MediaInfo

Format : AVI
Format/Info : Audio Video Interleave
File size : 1.37 GiB
Duration : 1h 38mn
Overall bit rate : 1 987 Kbps
Writing application : VirtualDubMod 1.5.10.3 | www.virtualdub-fr.org || (build 2550/release)
Writing library : VirtualDubMod build 2550/release
Video
ID : 0
Format : MPEG-4 Visual
Format profile : AdvancedSimple@L5
Format settings, BVOP : Yes
Format settings, QPel : No
Format settings, GMC : No warppoints
Format settings, Matrix : Default (MPEG)
Codec ID : XVID
Codec ID/Hint : XviD
Duration : 1h 38mn
Bit rate : 1 786 Kbps
Width : 720 pixels
Height : 304 pixels
Display aspect ratio : 2.35:1
Frame rate : 24.000 fps
Resolution : 24 bits
Colorimetry : 4:2:0
Scan type : Progressive
Bits/(Pixel*Frame) : 0.340
Stream size : 1.23 GiB (90%)
Writing library : XviD 1.2.1 (UTC 2008-12-04)
Audio
ID : 1
Format : AC-3
Format/Info : Audio Coding 3
Codec ID : 2000
Duration : 1h 38mn
Bit rate mode : Constant
Bit rate : 192 Kbps
Channel(s) : 2 channels
Channel positions : L R
Sampling rate : 48.0 KHz
Stream size : 135 MiB (10%)
Alignment : Split accross interleaves
Interleave, duration : 42 ms (1.00 video frame)
Interleave, preload duration : 500 ms

Скриншот c названием фильма

Скриншоты

Сейчас вы смотрите Атака титанов. Фильм первый: Жестокий мир / Shingeki no kyojin (Синдзи Хигути / Shinji Higuchi) [2015, Япония, Ужасы, фэнтези, боевик, драма, приключения, WEB-DLRip] Dub (iTunes) :: Spam,не забываем оставлять комментарии!
Атака титанов. Фильм первый: Жестокий мир / Shingeki no kyojin (Синдзи Хигути / Shinji Higuchi) [2015, Япония, Ужасы, фэнтези, боевик, драма, приключения, WEB-DLRip] Dub (iTunes) :: Spam [mytorrnado.ru].t195.torrent 
Torrent: Registered [ 2015-11-04 21:38 ] · 8E9CD10AB72F747710D61126A93EB6AB7F6BEB3E Google it!

Download .torrent

14 KB

Status: checked
Completed: 29 times
Тип торрента:    
Size: 1.37 GB
Поделиться:
FAQ:
 
Как качать?
Как качать?
X
Скачайте торрент и откройте его в своем клиенте
uTorrent

скачать программу,
дождитесь окончания загрузки.
Если торрент закрыт? Инстркуция.
* Как смотреть?
Как смотреть?
X

Для работы Magic Player
Вам необходимо установить
Ace Stream P2P Multimedia Plug-in

Установить

Для работы Magic Player Вам необходимо включить
Ace Stream P2P Multimedia Plug-in

Инструкция
terms.php
Похожие темы




Запрещено категорически:
» Развязывать разборки (для этого есть ЛС)
» Оставлять комментарии, не относящиеся к содержанию материала.
» Добавлять спам, рекламу флуд..
К спаму относится:
1. Реклама любого направления.
2. Ссылки на сторонние ресурсы рекламного характера.
3. Ссылки на ресурсы порнографического направления.
4. Сылки на блоги и им подбным контeнтам.
» Запрещено оскорбление администрации, модераторов и пользователей.
» Часто писать с вкл. Caps Lock
»За нарушение правил бан или отключение без объяснений.
Уважайте чужой труд!

Правила могут дополняться и изменяться. С уважением Администрация.
[Profile] [PM]
Display posts    
Reply to topic

Current time is: 01-Aug 15:41

All times are UTC + 5



You cannot post new topics in this forum
You cannot reply to topics in this forum
You cannot edit your posts in this forum
You cannot delete your posts in this forum
You cannot vote in polls in this forum
You cannot attach files in this forum
You can download files in this forum










!ATTENTION!
The site does not give electronic versions of products, and is engaged only in a collecting and cataloguing of the references sent and published at a forum by our readers. If you are the legal owner of any submitted material and do not wish that the reference to it was in our catalogue, contact us and we shall immediately remove her. Files for an exchange on tracker are given by users of a site, and the administration does not bear the responsibility for their maintenance. The request to not fill in the files protected by copyrights, and also files of the illegal maintenance!