Ветер с востока (1940) DVDRip от New-Team

DL-List and Torrent activity [Update ]
Size:  1.46 GB   |    Registered:  5 years 8 months   |    Completed:  32 times

Seeder not seen: Never

Leechers:  4  [  0 KB/s  ]  
 
     
 
 
 
Author Message

Иваныч ®

Gender: Male

Longevity: 5 years 8 months

Posts: 8227

Наличие запрета:


Карма  175 

Location: Россия,Курган



: 19 ()

Реализация решений (1) Дизайн (1) За внесенный вклад в развитие сайта (1) Техпддержка (1)
От администрации (1) Активный релизер  (100 релизов) (1) Активный релизер (500 релизов) (1) Активный релизер  (2000 релизов) (1)
Активный релизер  (200 релизов) (1) Активному релизеру (5000 раздач) (1) От администрации (1) Помощь (1)

Post 04-Nov-2015 22:47

[Quote]

Страна: СССР
Производство: Киевская киностудия
Жанр: биография, история
Год выпуска: 1940
Продолжительность: 01:24:24
Перевод: Не требуется
Cубтитры: нет
Оригинальная аудиодорожка: русский
Режиссер: Абрам Роом
В ролях:
Амвросий Бучма, Татьяна Кондракова, Валентина Бжеская, Ю. Островой, Борис Авшаров, Ольга Жизнева, Ростислав Плятт, Сергей Мартинсон; актёры украинских и польских театров Западных областей Украины: Е. Курило (роль озвучена Марком Бернесом), Стефа Стадникивна, Орест Слипенький, Пётр Сорока, Л. Сердюкова, Осип Стадник, В. Рачка...
Интересно, что в титрах «актёры украинских и польских театров Западных областей Украины» выделены из списка остальных исполнителей — вполне очевидно, в чисто пропагандистских целях. У некоторых из них, надо полагать, были столь серьёзные проблемы с русской речью, что озвучивать их пришлось другим, профессиональным артистам. Так, роль Андрея (Е. Курило) озвучил Марк Бернес, приблизительно в то время снимавшийся на Киевской студии у Леонида Лукова в «Большой жизни».
Описание:
Конец тридцатых годов. В западноукраинском селе Лентовня властвует помещица графиня Пшежинская. Она отнимает последний клочок земли у бедняка Хомы Габрыся, потому что через его участок проходит новая дорога к ее замку. Возмущенный Хома Габрысь в знак протеста уносит со своего поля два мешка земли. Его штрафуют и герой попадает в еще большую кабалу к графине. Тем временем в Лентовню приезжает молодая учительница Ганна. Она наблюдает за несправедливостью панов по отношению к крестьянам. Ее религиозные иллюзии быстро рассеиваются, и вскоре учительница начинает сочувствовать и помогать большевикам…- -Источник: DVD5 R5
Качество видео: DVDRip
Формат видео: AVI
Виде: 688x512 (4:3), 25 fps, XviD ~ 2270 kbps avg, 0.258 bit/pixel
Аудио: 48 kHz, Dolby Digital AC3 2.0, 192 kbps
Раздача от:

MediaInfo

Общее
Полное имя : Veter.s.vostoka.1940.DVDRip_[New-team]_by_AVP_Studio.avi
Формат : AVI
Формат/Информация : Audio Video Interleave
Размер файла : 1,46 Гбайт
Продолжительность : 1 ч. 24 м.
Общий поток : 2472 Кбит/сек
Программа кодирования : VirtualDubModRus 1.5.10.2 (build 2542/release)
Библиотека кодирования : VirtualDubMod build 2542/release
Видео
Идентификатор : 0
Формат : MPEG-4 Visual
Профиль формата : Advanced Simple@L5
Параметр BVOP формата : 1
Параметр QPel формата : Нет
Параметр GMC формата : Без точки перехода
Параметр матрицы формата : Выборочная
Идентификатор кодека : XVID
Идентификатор кодека/Подсказка : XviD
Продолжительность : 1 ч. 24 м.
Битрейт : 2270 Кбит/сек
Ширина : 688 пикселей
Высота : 512 пикселей
Соотношение сторон : 4:3
Частота кадров : 25,000 кадров/сек
Цветовое пространство : YUV
Субдискретизация насыщенности : 4:2:0
Битовая глубина : 8 бит
Тип развёртки : Прогрессивная
Метод сжатия : С потерями
Бит/(Пиксели*Кадры) : 0.258
Размер потока : 1,34 Гбайт (92%)
Библиотека кодирования : XviD 73
Аудио
Идентификатор : 1
Формат : AC-3
Формат/Информация : Audio Coding 3
Расширение режима : CM (complete main)
Параметр Endianness формата : Big
Идентификатор кодека : 2000
Продолжительность : 1 ч. 24 м.
Вид битрейта : Постоянный
Битрейт : 192 Кбит/сек
Каналы : 2 канала
Расположение каналов : Front: L R
Частота : 48,0 КГц
Битовая глубина : 16 бит
Метод сжатия : С потерями
Размер потока : 116 Мбайт (8%)
Выравнивание : Разделение по промежуткам
Продолжительность промежутка : 40 мс. (1,00 видеокадр)
Время предзагрузки промежутка : 500 мс

Скриншоты

Сейчас вы смотрите Ветер с востока (1940) DVDRip от New-Team,не забываем оставлять комментарии!
Ветер с востока (1940) DVDRip от New-Team [mytorrnado.ru].t202.torrent 
Torrent: Registered [ 2015-11-04 22:47 ] · 75B4A370317BF36BDB9910B22A529CD91BFD1770 Google it!

Download .torrent

15 KB

Status: checked
Completed: 32 times
Тип торрента:  Leeh: 4    
Size: 1.46 GB
Поделиться:
FAQ:
 
Как качать?
Как качать?
X
Скачайте торрент и откройте его в своем клиенте
uTorrent

скачать программу,
дождитесь окончания загрузки.
Если торрент закрыт? Инстркуция.
* Как смотреть?
Как смотреть?
X

Для работы Magic Player
Вам необходимо установить
Ace Stream P2P Multimedia Plug-in

Установить

Для работы Magic Player Вам необходимо включить
Ace Stream P2P Multimedia Plug-in

Инструкция
terms.php
Похожие темы




Запрещено категорически:
» Развязывать разборки (для этого есть ЛС)
» Оставлять комментарии, не относящиеся к содержанию материала.
» Добавлять спам, рекламу флуд..
К спаму относится:
1. Реклама любого направления.
2. Ссылки на сторонние ресурсы рекламного характера.
3. Ссылки на ресурсы порнографического направления.
4. Сылки на блоги и им подбным контeнтам.
» Запрещено оскорбление администрации, модераторов и пользователей.
» Часто писать с вкл. Caps Lock
»За нарушение правил бан или отключение без объяснений.
Уважайте чужой труд!

Правила могут дополняться и изменяться. С уважением Администрация.
[Profile] [PM]
Display posts    
Reply to topic

Current time is: 01-Aug 16:12

All times are UTC + 5



You cannot post new topics in this forum
You cannot reply to topics in this forum
You cannot edit your posts in this forum
You cannot delete your posts in this forum
You cannot vote in polls in this forum
You cannot attach files in this forum
You can download files in this forum










!ATTENTION!
The site does not give electronic versions of products, and is engaged only in a collecting and cataloguing of the references sent and published at a forum by our readers. If you are the legal owner of any submitted material and do not wish that the reference to it was in our catalogue, contact us and we shall immediately remove her. Files for an exchange on tracker are given by users of a site, and the administration does not bear the responsibility for their maintenance. The request to not fill in the files protected by copyrights, and also files of the illegal maintenance!