Истории ран. Часть 3: Холодная кровь / Kizumonogatari Part 3: Reiketsu-hen (2017) BDRip-HEVC 1080p | L | AniLibria

DL-List and Torrent activity [Update ]
Size:  825 MB   |    Registered:  25 days   |    Completed:  2 times
Seeders:  14  [  0 KB/s  ]   Leechers:  2  [  0 KB/s  ]  
 
     
 
 
Author Message

Иваныч ®

Gender: Male

Longevity: 5 years 8 months

Posts: 8208

Наличие запрета:


Карма  175 

Location: Россия,Курган



: 19 ()

От администрации (1) От администрации (1) Активный релизер  (3000 релизов) (1) Реализация решений (1)
Активисту (1) За внесенный вклад в развитие сайта (1) Активному релизеру (5000 раздач) (1) Техпддержка (1)
Активный релизер  (1000 релизов) (1) Активный релизер  (200 релизов) (1) Активный релизер  (50 релизов) (1) Активный релизер  (100 релизов) (1)

Post 01-Jul-2021 17:20

[Quote]

Информация о фильме
Название: Истории ран. Часть 3: Холодная кровь
Оригинальное название: Kizumonogatari Part 3: Reiketsu-hen
Год выхода: 2017
Жанр: вампиры, приключения, мистика
Режиссер: Тацуя Оиси, Акиюки Симбо
В ролях: Хироси Камия, Маая Сакамото, Юи Хориэ, Такахиро Сакурай
О фильме: Заключительная часть из трилогии полнометражных фильмов «Истории Ран». После боёв с тремя охотниками (Драматургия, Эпизод, Гильотина) Арараги получил все части тела Киссшот и готов их ей вернуть, чтобы снова стать человеком. Но остаётся много вопросов: как Киссшот сделает его человеком? Как трое охотников победили Киссшот на пике её силы? Зачем на самом деле приехал Мэмэ Ошино? И как в итоге продолжатся отношения Арараги и Ханэкавы?

Страна: Япония
Студия: Shaft
Продолжительность: 01:22:10 мин
Перевод: Любительский (многоголосый закадровый) AniLibria : SlivciS, MyAska, Gomer, BStrong
Тайминг: im4x
Работа над субтитрами: Yukigawa, Sesha_Rim, Aero, Helge
Файл
Кодек: HEVC
Качество: BDRip-HEVC 1080p
Видео: 1920x1080 (16:9), 1133 kb/s, 23.976 fps, 10 bit
Звук:
Аудио 1: Russian (Opus, 2 ch) 141 kbps, 48kHz | MVO (AniLibria)
Аудио 2: Japan (Opus, 2 ch) 124 kbps, 48kHz | Original
Субтитры: ass, русские (перевод надписей | полный перевод) в контейнере MKV

MediaInfo

Общее
Уникальный идентификатор : 264773030411867745789489194771933260309 (0xC7316E472E5A2FF99CED7E4BA0E36A15)
Полное имя : F:\DownloadT\Kizumonogatari III - AniLibria.TV [BDRip 1080p HEVC]\Kizumonogatari_[03]_[AniLibria_TV]_[BDRip_1080p_HEVC].mkv
Формат : Matroska
Версия формата : Version 4
Размер файла : 825 Мбайт
Продолжительность : 1 ч. 22 м.
Общий поток : 1 403 Кбит/сек
Дата кодирования : UTC 2021-06-29 17:49:48
Программа кодирования : mkvmerge v58.0.0 ('Supper's Ready') 64-bit
Библиотека кодирования : libebml v1.4.2 + libmatroska v1.6.4
Attachments : FuturaDemiC.otf / FuturaLightC.otf / KLMNFP2004.ttf / PalladiumC.otf / 9126.ttf / Aquarelle.ttf / flibustiere.ttf / FuturaBookC.otf
Видео
Идентификатор : 1
Формат : HEVC
Формат/Информация : High Efficiency Video Coding
Профиль формата : Main 10@L5.1@High
Идентификатор кодека : V_MPEGH/ISO/HEVC
Продолжительность : 1 ч. 22 м.
Битрейт : 1 133 Кбит/сек
Ширина : 1 920 пикселей
Высота : 1 080 пикселей
Соотношение сторон : 16:9
Режим частоты кадров : Переменный
Частота кадров : 23,976 кадра/сек
Цветовое пространство : YUV
Субдискретизация насыщенности : 4:2:0
Битовая глубина : 10 бит
Бит/(Пиксели*Кадры) : 0.023
Размер потока : 666 Мбайт (81%)
Заголовок : Original
Библиотека кодирования : x265 3.4+26-g83e2d7fb0:[Windows][GCC 9.3.0][64 bit] 10bit
Настройки программы : cpuid=1111039 / frame-threads=4 / numa-pools=16 / wpp / no-pmode / no-pme / no-psnr / no-ssim / log-level=2 / input-csp=1 / input-res=1920x1080 / interlace=0 / total-frames=0 / level-idc=51 / high-tier=1 / uhd-bd=0 / ref=6 / no-allow-non-conformance / no-repeat-headers / annexb / no-aud / no-hrd / info / hash=0 / no-temporal-layers / open-gop / min-keyint=23 / keyint=250 / gop-lookahead=0 / bframes=8 / b-adapt=2 / b-pyramid / bframe-bias=0 / rc-lookahead=40 / lookahead-slices=0 / scenecut=40 / hist-scenecut=0 / radl=0 / no-splice / no-intra-refresh / ctu=64 / min-cu-size=8 / rect / amp / max-tu-size=32 / tu-inter-depth=3 / tu-intra-depth=3 / limit-tu=0 / rdoq-level=2 / dynamic-rd=0.00 / no-ssim-rd / signhide / no-tskip / nr-intra=0 / nr-inter=0 / no-constrained-intra / strong-intra-smoothing / max-merge=5 / limit-refs=0 / no-limit-modes / me=3 / subme=4 / merange=57 / temporal-mvp / no-frame-dup / no-hme / weightp / weightb / no-analyze-src-pics / deblock=0:0 / sao / no-sao-non-deblock / rd=6 / selective-sao=4 / no-early-skip / rskip / no-fast-intra / no-tskip-fast / no-cu-lossless / b-intra / no-splitrd-skip / rdpenalty=0 / psy-rd=2.00 / psy-rdoq=1.00 / no-rd-refine / no-lossless / cbqpoffs=0 / crqpoffs=0 / rc=crf / crf=21.0 / qcomp=0.60 / qpstep=4 / stats-write=0 / stats-read=0 / vbv-maxrate=160000 / vbv-bufsize=160000 / vbv-init=0.9 / min-vbv-fullness=50.0 / max-vbv-fullness=80.0 / crf-max=0.0 / crf-min=0.0 / ipratio=1.40 / pbratio=1.30 / aq-mode=2 / aq-strength=1.00 / cutree / zone-count=0 / no-strict-cbr / qg-size=32 / no-rc-grain / qpmax=69 / qpmin=0 / no-const-vbv / sar=1 / overscan=0 / videoformat=5 / range=0 / colorprim=2 / transfer=2 / colormatrix=2 / chromaloc=0 / display-window=0 / cll=0,0 / min-luma=0 / max-luma=1023 / log2-max-poc-lsb=8 / vui-timing-info / vui-hrd-info / slices=1 / no-opt-qp-pps / no-opt-ref-list-length-pps / no-multi-pass-opt-rps / scenecut-bias=0.05 / hist-threshold=0.03 / no-opt-cu-delta-qp / no-aq-motion / no-hdr10 / no-hdr10-opt / no-dhdr10-opt / no-idr-recovery-sei / analysis-reuse-level=0 / analysis-save-reuse-level=0 / analysis-load-reuse-level=0 / scale-factor=0 / refine-intra=0 / refine-inter=0 / refine-mv=1 / refine-ctu-distortion=0 / no-limit-sao / ctu-info=0 / no-lowpass-dct / refine-analysis-type=0 / copy-pic=1 / max-ausize-factor=1.0 / no-dynamic-refine / no-single-sei / no-hevc-aq / no-svt / no-field / qp-adaptation-range=1.00 / no-scenecut-aware-qpconformance-window-offsets / right=0 / bottom=0 / decoder-max-rate=0 / no-vbv-live-multi-pass
Язык : Japanese
Default : Да
Forced : Да
Цветовой диапазон : Limited
Аудио #1
Идентификатор : 2
Формат : Opus
Идентификатор кодека : A_OPUS
Продолжительность : 1 ч. 22 м.
Битрейт : 141 Кбит/сек
Каналы : 2 канала
Channel layout : L R
Частота : 48,0 КГц
Частота кадров : 50,000 кадров/сек (960 SPF)
Метод сжатия : С потерями
Размер потока : 82,6 Мбайт (10%)
Заголовок : AniLibria.TV
Язык : Russian
Default : Да
Forced : Да
Аудио #2
Идентификатор : 3
Формат : Opus
Идентификатор кодека : A_OPUS
Продолжительность : 1 ч. 22 м.
Битрейт : 124 Кбит/сек
Каналы : 2 канала
Channel layout : L R
Частота : 48,0 КГц
Частота кадров : 50,000 кадров/сек (960 SPF)
Битовая глубина : 24 бит
Метод сжатия : С потерями
Размер потока : 72,9 Мбайт (9%)
Заголовок : Original
Язык : Japanese
Default : Нет
Forced : Нет
Текст #1
Идентификатор : 4
Формат : ASS
Идентификатор кодека : S_TEXT/ASS
Идентификатор кодека/Информация : Advanced Sub Station Alpha
Продолжительность : 1 ч. 21 м.
Битрейт : 334 бит/сек
Count of elements : 1666
Метод сжатия : Без потерь
Размер потока : 201 Кбайт (0%)
Заголовок : Надписи
Язык : Russian
Default : Да
Forced : Да
Текст #2
Идентификатор : 5
Формат : ASS
Идентификатор кодека : S_TEXT/ASS
Идентификатор кодека/Информация : Advanced Sub Station Alpha
Продолжительность : 1 ч. 21 м.
Битрейт : 456 бит/сек
Count of elements : 2642
Метод сжатия : Без потерь
Размер потока : 274 Кбайт (0%)
Заголовок : Полные
Язык : Russian
Default : Нет
Forced : Нет
Меню
00:00:00.000 : :Avant
00:07:32.160 : :Part A
00:21:28.453 : :Part B
00:35:49.230 : :Part C
00:45:34.022 : :Part D
00:56:46.277 : :Part E
01:05:16.412 : :Part F
01:11:16.146 : :Part G
01:16:01.807 : :ED

Скриншоты

Истории ран. Часть 3: Холодная кровь / Kizumonogatari Part 3: Reiketsu-hen (2017) BDRip-HEVC 1080p | L | AniLibria [mytorrnado.ru].t20293.torrent 
Torrent: Registered [ 2021-07-01 17:20 ] · 00B80DFC7D920F3160CA3105C7D54D594F157DC7 Google it!

Download .torrent

3 KB

Status: checked
Completed: 2 times
Тип торрента: Публичный  - Seed: 14;  Leeh: 2    
Size: 825 MB
Поделиться:
FAQ:
 
Как качать?
Как качать?
X
Скачайте торрент и откройте его в своем клиенте
uTorrent

скачать программу,
дождитесь окончания загрузки.
Если торрент закрыт? Инстркуция.
* Как смотреть?
Как смотреть?
X

Для работы Magic Player
Вам необходимо установить
Ace Stream P2P Multimedia Plug-in

Установить

Для работы Magic Player Вам необходимо включить
Ace Stream P2P Multimedia Plug-in

Инструкция
terms.php
Похожие темы




Запрещено категорически:
» Развязывать разборки (для этого есть ЛС)
» Оставлять комментарии, не относящиеся к содержанию материала.
» Добавлять спам, рекламу флуд..
К спаму относится:
1. Реклама любого направления.
2. Ссылки на сторонние ресурсы рекламного характера.
3. Ссылки на ресурсы порнографического направления.
4. Сылки на блоги и им подбным контeнтам.
» Запрещено оскорбление администрации, модераторов и пользователей.
» Часто писать с вкл. Caps Lock
»За нарушение правил бан или отключение без объяснений.
Уважайте чужой труд!

Правила могут дополняться и изменяться. С уважением Администрация.
[Profile] [PM]
Display posts    
Reply to topic

Current time is: 27-Jul 01:42

All times are UTC + 5



You cannot post new topics in this forum
You cannot reply to topics in this forum
You cannot edit your posts in this forum
You cannot delete your posts in this forum
You cannot vote in polls in this forum
You cannot attach files in this forum
You can download files in this forum










!ATTENTION!
The site does not give electronic versions of products, and is engaged only in a collecting and cataloguing of the references sent and published at a forum by our readers. If you are the legal owner of any submitted material and do not wish that the reference to it was in our catalogue, contact us and we shall immediately remove her. Files for an exchange on tracker are given by users of a site, and the administration does not bear the responsibility for their maintenance. The request to not fill in the files protected by copyrights, and also files of the illegal maintenance!