Приливы / Tides (2021) WEBRip 1080p | L

 
Author Message

Иваныч ®

Gender: Male

Longevity: 5 years 8 months

Posts: 8213

Наличие запрета:


Карма  175 

Location: Россия,Курган



: 19 ()

Активный релизер  (1000 релизов) (1) От администрации (1) За внесенный вклад в развитие сайта (1) Реализация решений (1)
Активный релизер (500 релизов) (1) Активный релизер  (200 релизов) (1) Активный релизер  (3000 релизов) (1) Дизайн (1)
Активный релизер  (250 и более релизов) (1) Активному релизеру (5000 раздач) (1) Активный релизер  (100 релизов) (1) Помощь (1)

Post 10-Jul-2021 08:53

[Quote]

Год выпуска: 2021
Страна / студия: Германия, Berghaus, Wöbke Filmproduktion, Vega FilmConstantin Film
Жанр: Фантастика, триллер
Продолжительность: 01:59:11
Перевод: Любительский (многоголосый) [AlphaProject]
Режиссер: Тим Фельбаум
В ролях: Нора Арнезедер, Сара-Софи Бусснина, Иэн Глен, Сопе Дирису, Йоэль Басман, Себастьян Роше, Белла Бадинг, Хонг Бергхоф, Луна Мвези, Николя Перо
О фильме: После глобальной катастрофы на Земле выжившие люди переселяются на космическую колонию в системе Кеплера. Годы спустя они начинают отправлять на Землю космонавтов, чтобы определить, появились ли на планете условия для жизни. Прибыв во второй из таких экспедиций астронавт Луиза Блейк выясняет, что несмотря на постоянные приливы уничтожающие и без того скудную пищу, на Земле всё таки имеются выжившие, однако их сообщества постоянную борьбу за ресурсы. Вскоре она ей открывается страшная тайна первой экспедиции, в которой участвовал её отец и девушка оказывается перед решением, которое может стать роковым как для заброшенной планеты, так и для всего человечества.

Качество: WEBRip 1080p
Видео: MPEG-4 AVC, 6821 Кбит/с, 1918x800
Аудио 1: AC3, 2 ch, 256 Кбит/с |[img]https://clck.ru/VDmXQ[/img] | Tnx.KinoPub
Аудио 2: AC3, 6 ch, 384 Кбит/с |[img]https://clck.ru/VDmV8[/img]
Субтитры: Английские

Скриншоты


Инфо

Общее
Уникальный идентификатор : 79593438897848449218406883840794908286 (0x3BE12384234442999C9C172C4535567E)
Полное имя : The.Colony.2021.1080p.WEBRip.KinoPub.mkv
Формат : Matroska
Версия формата : Version 4
Размер файла : 5,46 Гбайт
Продолжительность : 1 ч. 44 м.
Общий поток : 7 464 Кбит/сек
Название фильма : The.Colony.2021.1080p.WEBRip.KinoPub
Дата кодирования : UTC 2021-07-09 15:47:46
Программа кодирования : mkvmerge v53.0.0 ('Fool's Gold') 64-bit
Библиотека кодирования : libebml v1.4.1 + libmatroska v1.6.2
Видео
Идентификатор : 1
Формат : AVC
Формат/Информация : Advanced Video Codec
Профиль формата : High@L4
Настройки формата : CABAC / 5 Ref Frames
Параметр CABAC формата : Да
Параметр RefFrames формата : 5 кадров
Идентификатор кодека : V_MPEG4/ISO/AVC
Продолжительность : 1 ч. 44 м.
Битрейт : 6 821 Кбит/сек
Ширина : 1 918 пикселей
Высота : 800 пикселей
Соотношение сторон : 2,40:1
Соотношение сторон в оригинале : 2,40:1
Режим частоты кадров : Постоянный
Частота кадров : 24,000 кадра/сек
Цветовое пространство : YUV
Субдискретизация насыщенности : 4:2:0
Битовая глубина : 8 бит
Тип развёртки : Прогрессивная
Бит/(Пиксели*Кадры) : 0.185
Размер потока : 4,99 Гбайт (91%)
Default : Да
Forced : Нет
Цветовой диапазон : Limited
Основные цвета : BT.709
Характеристики трансфера : BT.709
Коэффициенты матрицы : BT.709
Аудио #1
Идентификатор : 2
Формат : AC-3
Формат/Информация : Audio Coding 3
Коммерческое название : Dolby Digital
Идентификатор кодека : A_AC3
Продолжительность : 1 ч. 44 м.
Вид битрейта : Постоянный
Битрейт : 256 Кбит/сек
Каналы : 2 канала
Channel layout : L R
Частота : 48,0 КГц
Частота кадров : 31,250 кадров/сек (1536 SPF)
Метод сжатия : С потерями
Размер потока : 192 Мбайт (3%)
Заголовок : AlphaProject | KinoPub
Язык : Russian
Service kind : Complete Main
Default : Да
Forced : Нет
Аудио #2
Идентификатор : 3
Формат : AC-3
Формат/Информация : Audio Coding 3
Коммерческое название : Dolby Digital
Идентификатор кодека : A_AC3
Продолжительность : 1 ч. 44 м.
Вид битрейта : Постоянный
Битрейт : 384 Кбит/сек
Каналы : 6 каналов
Channel layout : L R C LFE Ls Rs
Частота : 48,0 КГц
Частота кадров : 31,250 кадров/сек (1536 SPF)
Метод сжатия : С потерями
Размер потока : 287 Мбайт (5%)
Заголовок : English
Язык : English
Service kind : Complete Main
Default : Нет
Forced : Нет
Текст
Идентификатор : 4
Формат : UTF-8
Идентификатор кодека : S_TEXT/UTF8
Идентификатор кодека/Информация : UTF-8 Plain Text
Продолжительность : 1 ч. 33 м.
Битрейт : 25 бит/сек
Count of elements : 719
Размер потока : 17,4 Кбайт (0%)
Язык : English
Default : Нет
Forced : Нет
Меню
00:00:00.000 : Scene 1
00:22:11.791 : Scene 2
00:43:35.250 : Scene 3
01:08:31.041 : Scene 4
01:26:17.666 : Scene 5
01:37:09.666 : Scene 6
[Profile] [PM]
Display posts    
Topic locked

Current time is: 28-Jul 17:53

All times are UTC + 5



You cannot post new topics in this forum
You cannot reply to topics in this forum
You cannot edit your posts in this forum
You cannot delete your posts in this forum
You cannot vote in polls in this forum
You cannot attach files in this forum
You cannot download files in this forum










!ATTENTION!
The site does not give electronic versions of products, and is engaged only in a collecting and cataloguing of the references sent and published at a forum by our readers. If you are the legal owner of any submitted material and do not wish that the reference to it was in our catalogue, contact us and we shall immediately remove her. Files for an exchange on tracker are given by users of a site, and the administration does not bear the responsibility for their maintenance. The request to not fill in the files protected by copyrights, and also files of the illegal maintenance!