Selena Gomez • Hands To Myself [2015, Pop, Master, 1080p]

DL-List and Torrent activity [Update ]
Size:  4.68 GB   |    Registered:  14 days   |    Completed:  3 times

Seeder not seen: Never

 
     
 
 
 
Author Message

MAGNAT ®

Gender: Male

Longevity: 5 years 6 months

Posts: 2696

Наличие запрета:


Карма  2 

Location: Москва



: 7 ()

Активный релизер  (1000 релизов) (1) Активный релизер (500 релизов) (1) Активный релизер  (200 релизов) (1) Активный релизер  (50 релизов) (1)
Активный релизер  (100 релизов) (1) Активный релизер  (150 релизов) (1)

Post 11-Jul-2021 22:00

[Quote]

*Selena Gomez
*Hands To Myself


Жанр: Pop
Продолжительность: 00:03:47
Год выпуска: 2015
Качество: Master
Разрешение видео/развертка: 1080p
Контейнер: MOV
Видео кодек: APCH
Аудио кодек: PCM
Видео: APCH 1920x1080 23.976fps 175 Mb/s
Аудио: PCM 48000Hz stereo 1536kbps

Отчёт MediaInfo / BDInfo

General
Complete name : E:\Selena Gomez - Hands To Myself.mov
Format : MPEG-4
Format profile : QuickTime
Codec ID : qt 2005.03 (qt )
File size : 4.68 GiB
Duration : 3 min 47 s
Overall bit rate mode : Variable
Overall bit rate : 177 Mb/s
Encoded date : UTC 2015-12-18 02:06:20
Tagged date : UTC 2016-01-21 23:50:47
Writing library : Apple QuickTime 7.6.7
com.apple.quicktime.player.mov : (Binary)
TIM : 00:00:00:00
TSC : 24000
TSZ : 1001
Video
ID : 1
Format : ProRes
Format version : Version 0
Format profile : 422 HQ
Codec ID : apch
Duration : 3 min 47 s
Bit rate mode : Variable
Bit rate : 175 Mb/s
Width : 1 920 pixels
Clean aperture width : 1 920 pixels
Height : 1 080 pixels
Clean aperture height : 1 080 pixels
Display aspect ratio : 16:9
Clean aperture display aspect : 16:9
Frame rate mode : Constant
Frame rate : 23.976 (24000/1001) FPS
Color space : YUV
Chroma subsampling : 4:2:2
Scan type : Progressive
Bits/(Pixel*Frame) : 3.523
Stream size : 4.64 GiB (99%)
Writing library : aut0
Language : English
Encoded date : UTC 2015-12-18 02:06:20
Tagged date : UTC 2015-12-18 02:15:37
Color primaries : BT.709
Transfer characteristics : BT.709
Matrix coefficients : BT.709
Audio
ID : 2
Format : PCM
Format settings : Little / Signed
Codec ID : sowt
Duration : 3 min 47 s
Bit rate mode : Constant
Bit rate : 1 536 kb/s
Channel(s) : 2 channels
Channel layout : L R
Sampling rate : 48.0 kHz
Bit depth : 16 bits
Stream size : 41.7 MiB (1%)
Language : English
Encoded date : UTC 2015-12-18 02:06:20
Tagged date : UTC 2016-01-21 23:50:47
Selena Gomez • Hands To Myself [2015, Pop, Master, 1080p] [mytorrnado.ru].t20854.torrent 
Torrent: Registered [ 2021-07-11 22:00 ] · DD0C55F572F981DE6FDBD448BA8FC4169E4514FD Google it!

Download .torrent

12 KB

Status: checked
Completed: 3 times
Тип торрента:    
Size: 4.68 GB
Поделиться:
FAQ:
 
Как качать?
Как качать?
X
Скачайте торрент и откройте его в своем клиенте
uTorrent

скачать программу,
дождитесь окончания загрузки.
Если торрент закрыт? Инстркуция.
* Как смотреть?
Как смотреть?
X

Для работы Magic Player
Вам необходимо установить
Ace Stream P2P Multimedia Plug-in

Установить

Для работы Magic Player Вам необходимо включить
Ace Stream P2P Multimedia Plug-in

Инструкция
terms.php
Похожие темы




Запрещено категорически:
» Развязывать разборки (для этого есть ЛС)
» Оставлять комментарии, не относящиеся к содержанию материала.
» Добавлять спам, рекламу флуд..
К спаму относится:
1. Реклама любого направления.
2. Ссылки на сторонние ресурсы рекламного характера.
3. Ссылки на ресурсы порнографического направления.
4. Сылки на блоги и им подбным контeнтам.
» Запрещено оскорбление администрации, модераторов и пользователей.
» Часто писать с вкл. Caps Lock
»За нарушение правил бан или отключение без объяснений.
Уважайте чужой труд!

Правила могут дополняться и изменяться. С уважением Администрация.
[Profile] [PM]
Display posts    
Reply to topic

Current time is: 26-Jul 00:31

All times are UTC + 5



You cannot post new topics in this forum
You cannot reply to topics in this forum
You cannot edit your posts in this forum
You cannot delete your posts in this forum
You cannot vote in polls in this forum
You can attach files in this forum
You can download files in this forum










!ATTENTION!
The site does not give electronic versions of products, and is engaged only in a collecting and cataloguing of the references sent and published at a forum by our readers. If you are the legal owner of any submitted material and do not wish that the reference to it was in our catalogue, contact us and we shall immediately remove her. Files for an exchange on tracker are given by users of a site, and the administration does not bear the responsibility for their maintenance. The request to not fill in the files protected by copyrights, and also files of the illegal maintenance!